BitTorrentTracker PerecTracker.org
BitTorrentTracker PerecTracker.org
    
Регистрация  ·  Вход
 
 · 
Забыли пароль?

  • Демоны / Deemonid (Айн Мяэотс / Ain Mäeots) [2012, Эстония, драма, DVDRip] Sub Rus + Original Est

    Ответить на тему
     
    Автор Сообщение

    Light

    Создавать темы 03-Дек-2015 00:11

           

    [Цитировать]

    Демоны / Deemonid
    Страна: Эстония
    Жанр: драма
    Год выпуска: 2012
    Продолжительность: 01:49:18
    Перевод: Субтитры
    Cубтитры: русские
    Оригинальная аудиодорожка: эстонский
    Режиссёр: Айн Мяэотс / Ain Mäeots
    В ролях: Тамбет Туйск, Эне Ярвис, Айн Лутсепп, Эвелин Выйгемаст, Майт Малмстен, Кайя Скоблов, Эва Пюсса, Лийна Тенносаар, Кайе Михкелсон, Пеэтер Оя, Андрес Лепик, Элмо Нюганен, Маргус Прангел и др.
    Описание: Эстонский режиссёр и сценарист Айн Мяэотс знает о лудомании не понаслышке. Когда-то он сам страдал от патологической игровой зависимости, но сумел успешно её побороть. И по мотивам этого опыта выпустил свой фильм, получивший название "Демоны / Deemonid".
    Сюжет картины завязан на трёх главных героях, Йоко, Реэт и Антсе, завсегдатаях одного и того же казино, но не знакомых друг с другом. Эти три персонажа олицетворяют разные стадии разрушения личности, которые, один за другим, проходит типичный лудоман. Если первый лишь начинает свое падение, которое пока еще падением не кажется, а притворяется просто улыбкой слепой удачи, второй уже достиг середины рокового пути, а третий уже выходит на финишную прямую. И это связывает сюжетные линии в единое целое.
    Йоко, которого играет Тамбет Туйск, - начинающий любитель азартных игр, считающий, что приходит сюда только ради развлечения, не подвергаясь никакой зависимости. Но и он уже испытывает на себе классическую проблему лудоманов: где взять денег на игру? С этой целью ему приходится обманывать старого друга и свою супругу, ожидающую ребёнка. При этом сам Йоко испытывает отвращение к тому, что делает.
    Реэт, героиня Эне Ярвис, - уже лудоман "со стажем", но ещё не опустившаяся на самое дно. Она искренне верит в удачу, и даже то, что спустила в игровой автомат все свои деньги, не выиграв ни единого евро, списывает на неисправность аппарата...
    Наконец, Антс в исполнении Айна Лутсеппа - самый безнадёжный случай. Причём за внешностью строгого педанта, любящего во всём порядок, скрывается окончательно потерявший над собой контроль, безоглядно ныряющий в пучины азарта по-настоящему больной человек.
    Отличная актёрская игра, грамотная операторская работа, в основном за счёт выразительных крупных планов, делает чувства и переживания главных героев весьма осязаемыми для зрителя.

    Доп. информация:
    Релиз
    Награда:
    2012 - Приз за лучшую операторскую работу (Элен Лотман) на XVI Таллиннском кинофестивале "Тёмные ночи" (PÖFF)
    Сэмпл: http://multi-up.com/1076468
    Качество видео: DVDRip
    Формат видео: AVI
    Видео: 720х400 (16:9), 25 fps, XviD, 1325 Кбит/сек
    Аудио: 448 Кбит/сек, 6 каналов, 16 бит, 48 КГц, AC3 - эстонский
    Формат субтитров: softsub (SRT)

    MediaInfo

    Формат : AVI
    Формат/Информация : Audio Video Interleave
    Размер файла : 1,36 Гбайт
    Продолжительность : 1 ч. 49 м.
    Общий поток : 1782 Кбит/сек
    Библиотека кодирования : VirtualDub build 32842/release
    Видео
    Идентификатор : 0
    Формат : MPEG-4 Visual
    Профиль формата : Advanced Simple@L5
    Параметр BVOP формата : 1
    Параметр QPel формата : Нет
    Параметр GMC формата : Без точки перехода
    Параметр матрицы формата : Default (MPEG)
    Идентификатор кодека : XVID
    Идентификатор кодека/Подсказка : XviD
    Продолжительность : 1 ч. 49 м.
    Битрейт : 1325 Кбит/сек
    Ширина : 720 пикселей
    Высота : 400 пикселей
    Соотношение сторон : 16:9
    Частота кадров : 25,000 кадров/сек
    Цветовое пространство : YUV
    Субдискретизация насыщенности : 4:2:0
    Битовая глубина : 8 бит
    Тип развёртки : Прогрессивная
    Метод сжатия : С потерями
    Бит/(Пиксели*Кадры) : 0.184
    Размер потока : 1,01 Гбайт (74%)
    Библиотека кодирования : XviD 64
    Аудио
    Идентификатор : 1
    Формат : AC-3
    Формат/Информация : Audio Coding 3
    Расширение режима : CM (complete main)
    Параметр Endianness формата : Big
    Идентификатор кодека : 2000
    Продолжительность : 1 ч. 49 м.
    Вид битрейта : Постоянный
    Битрейт : 448 Кбит/сек
    Каналы : 6 каналов
    Расположение каналов : Front: L C R, Side: L R, LFE
    Частота : 48,0 КГц
    Метод сжатия : С потерями
    Размер потока : 350 Мбайт (25%)
    Выравнивание : Разделение по промежуткам
    Продолжительность промежутка : 40 мс. (1,00 видеокадр)
    Время предзагрузки промежутка : 500 мс.

    Скриншот c названием фильма

    Скриншоты

    Скриншоты с субтитрами

    Пример субтитров

    118
    00:11:28,853 --> 00:11:32,284
    Хотите увидеть,
    как ноль принесёт ноль?
    119
    00:11:33,560 --> 00:11:36,808
    Ты чего вытворяешь?
    - Погоди минутку.
    120
    00:11:37,100 --> 00:11:39,580
    Ставки сделаны.
    121
    00:11:51,920 --> 00:11:55,020
    Выиграл зеро.
    - Да ладно!
    122
    00:11:55,065 --> 00:11:57,840
    Я же сказала, ставь на зеро!
    123
    00:11:59,580 --> 00:12:02,883
    Невероятно! Вот это рука!
    124
    00:12:03,000 --> 00:12:04,930
    Ваш выигрыш.
    125
    00:12:07,020 --> 00:12:10,669
    Идём. Если честно,
    я ничего не понимаю.
    126
    00:12:11,700 --> 00:12:14,800
    Это настоящие деньги?
    - Да, конечно.
    127
    00:12:14,840 --> 00:12:18,136
    И ваш выигрыш.
    - Да, да, спасибо.
    128
    00:12:19,260 --> 00:12:22,186
    Играть здесь не обязательно, да?
    129
    00:12:22,640 --> 00:12:27,300
    Играть? Нет. Если сама не захочешь.
    - Откуда ты знаешь, что не надо?
    130
    00:12:27,374 --> 00:12:30,514
    Мы пытаемся заполучить их
    в качестве клиента.
    131
    00:12:30,556 --> 00:12:34,507
    "Мы"?
    - Наше рекламное агентство.
    132
    00:12:34,570 --> 00:12:37,700
    А им нужна какая-то реклама?
    133
    00:12:37,911 --> 00:12:41,090
    Ты лучше мне рекламу сделай!
    134
    00:12:41,957 --> 00:12:46,127
    Тебе реклама не нужна,
    у тебя есть муж.
    135
    00:12:46,220 --> 00:12:51,346
    А вот мне бы не помешала.
    - Зачем? Ты же свободный человек.
    136
    00:12:51,400 --> 00:12:54,467
    Я уже год нигде не была.
    137
    00:12:54,560 --> 00:12:59,686
    А почему ты никуда не ходишь?
    - Действительно, почему?
    Скачать .torrent

    Скачать торрент-файл бесплатно и на максимальной скорости!

    Как скачивать? · Что такое торрент? · Рейтинг и ограничения

    !ВНИМАНИЕ!
    Сайт не распространяет и не хранит электронные версии произведений, а занимается лишь лишь предоставлением доступа к создаваемому пользователями каталогу ссылок на торрент-файлы, которые содержат только списки хеш-сумм, убедительная просьба с жалобами обращаться напрямую к пользователю. Файлы для обмена на трекере предоставлены пользователями сайта, и администрация не несёт ответственности за их содержание. Просьба не заливать файлы, защищенные авторскими правами, а также файлы нелегального содержания!


    _________________
    [Профиль] [ЛС]
    Показать сообщения:    
    Ответить на тему

    Текущее время: Сегодня, в 07:54

    Часовой пояс: GMT + 2



    Вы не можете начинать темы
    Вы не можете отвечать на сообщения
    Вы не можете редактировать свои сообщения
    Вы не можете удалять свои сообщения
    Вы не можете голосовать в опросах
    Вы не можете прикреплять файлы к сообщениям
    Вы не можете скачивать файлы