BitTorrentTracker PerecTracker.org
BitTorrentTracker PerecTracker.org
    
Регистрация  ·  Вход
 
 · 
Забыли пароль?

  • Одинокий рейнджер / The Lone Ranger (Гор Вербински / Gore Verbinski) [2013, США, вестерн, приключения, комедия, BDRip-AVC] Dub (Blu-ray EUR) + 2x AVO (Ю. Сербин, Л. Володарский) + Sub Rus, Eng + Original Eng

    Ответить на тему
     
    Автор Сообщение

    Light

    Создавать темы 03-Дек-2015 00:11

           

    [Цитировать]

    Одинокий рейнджер
    The Lone Ranger
    «Никогда не снимай маску»
    -Страна: США
    Жанр: вестерн, приключения, комедия
    Год выпуска: 2013
    Продолжительность: 02:29:33
    Перевод: Профессиональный (дублированный) Blu-ray EUR
    Перевод 2: Авторский (одноголосый закадровый) Ю. Сербин
    Перевод 3: Авторский (одноголосый закадровый) Л. Володарский Отдельно
    Cубтитры: Rus, Eng (Forced, Full)
    Оригинальная аудиодорожка: английский-Режиссер:
    Гор Вербински / Gore Verbinski
    В ролях:
    Джонни Депп | Johnny Depp
    Арми Хаммер | Armie Hammer

    Том Уилкинсон, Уильям Фихтнер, Рут Уилсон, Барри Пеппер, Хелена Бонем Картер, Брайант Принц, Стивен Рут-ОписаниеИстория блюстителя закона Джона Рида, который с помощью индейца Тонто стал легендарным мстителем в маске, стоящим на защите справедливости. Тонто с юмором и небылицами повествует о тех приключениях, которые пришлось пережить двум непохожим друг на друга героям, сведенным судьбой для того, чтобы вместе сражаться против общего врага. Им приходится противостоять жадности и коррупции во времена, когда появление первых железных дорог изменило представление о власти и могуществе в мире.-Сэмпл

    IMDb: 6.50 (170 441)
    Качество видео: BDRip-AVC Blu-ray disc 1080p] [EUR]
    Формат видео: MKV
    Видео: AVC 3591 Kbps 1152 x 480 (2.400) 23.976 fps
    Аудио: AC-3 448 Kbps 6 channels, 48.0 KHz DUB Blu-ray EUR
    Аудио 2: AC-3 448 Kbps 6 channels, 48.0 KHz AVO Ю. Сербин
    Аудио 3: AC-3 448 Kbps 6 channels, 48.0 KHz ENG
    Аудио 4: AC-3 448 Kbps 6 channels, 48.0 KHz AVO Л. Володарский Отдельно
    Формат субтитров: softsub (SRT)
    MediaInfo | Log

    Log

    x264 [info]: frame I:2117 Avg QP:15.20 size: 93380
    x264 [info]: frame P:50764 Avg QP:17.03 size: 36391
    x264 [info]: frame B:162256 Avg QP:19.52 size: 12896
    x264 [info]: consecutive B-frames: 2.6% 3.2% 12.4% 28.0% 18.6% 26.4% 4.2% 1.6% 1.0% 0.6% 0.4% 0.3% 0.6%
    x264 [info]: mb I I16..4: 7.8% 68.1% 24.2%
    x264 [info]: mb P I16..4: 1.0% 15.7% 2.5% P16..4: 26.2% 31.7% 15.2% 3.5% 0.4% skip: 3.8%
    x264 [info]: mb B I16..4: 0.1% 2.2% 0.3% B16..8: 32.9% 23.8% 5.0% direct: 6.7% skip:29.0% L0:40.9% L1:42.2% BI:16.9%
    x264 [info]: 8x8 transform intra:80.6% inter:52.6%
    x264 [info]: direct mvs spatial:100.0% temporal:0.0%
    x264 [info]: coded y,uvDC,uvAC intra: 93.2% 79.8% 56.6% inter: 30.8% 16.0% 2.8%
    x264 [info]: i16 v,h,dc,p: 22% 12% 13% 53%
    x264 [info]: i8 v,h,dc,ddl,ddr,vr,hd,vl,hu: 9% 10% 10% 9% 12% 12% 13% 12% 14%
    x264 [info]: i4 v,h,dc,ddl,ddr,vr,hd,vl,hu: 10% 9% 6% 9% 15% 14% 14% 11% 14%
    x264 [info]: i8c dc,h,v,p: 38% 32% 18% 13%
    x264 [info]: Weighted P-Frames: Y:6.7% UV:4.1%
    x264 [info]: ref P L0: 45.9% 12.2% 17.0% 6.3% 5.1% 3.6% 3.2% 1.8% 1.7% 1.4% 1.4% 0.3% 0.0%
    x264 [info]: ref B L0: 73.5% 12.0% 5.3% 2.8% 2.0% 1.6% 1.2% 0.8% 0.5% 0.3%
    x264 [info]: ref B L1: 92.5% 7.5%
    x264 [info]: kb/s:3688.82
    x264 [total]: encoded 215137 frames, 8.59 fps, 3688.82 kb/s, duration 6:57:14.64
    Format : Matroska
    Format version : Version 4 / Version 2
    File size : 5.26 GiB
    Duration : 2h 29mn
    Overall bit rate : 5 035 Kbps
    Encoded date : UTC 2015-11-23 23:31:10
    Writing application : mkvmerge v6.7.0 ('Back to the Ground') 32bit built on Jan 8 2014 15:03:17
    Writing library : libebml v1.3.0 + libmatroska v1.4.1
    Video
    ID : 1
    Format : AVC
    Format/Info : Advanced Video Codec
    Format profile : High@L4.1
    Format settings, CABAC : Yes
    Format settings, ReFrames : 11 frames
    Codec ID : V_MPEG4/ISO/AVC
    Duration : 2h 29mn
    Bit rate : 3 591 Kbps
    Width : 1 152 pixels
    Height : 480 pixels
    Display aspect ratio : 2.40:1
    Frame rate mode : Constant
    Frame rate : 23.976 fps
    Color space : YUV
    Chroma subsampling : 4:2:0
    Bit depth : 8 bits
    Scan type : Progressive
    Bits/(Pixel*Frame) : 0.271
    Stream size : 3.75 GiB (71%)
    Title : The Lone Ranger (2013) [perectracker.org]
    Writing library : x264 core 148 r2579kMod 73ae2d1
    Encoding settings : cabac=1 / ref=11 / deblock=1:-2:-2 / analyse=0x3:0x133 / me=umh / subme=11 / psy=1 / fade_compensate=0.00 / psy_rd=1.00:0.05 / mixed_ref=1 / me_range=32 / chroma_me=1 / trellis=2 / 8x8dct=1 / cqm=0 / deadzone=21,11 / fast_pskip=0 / chroma_qp_offset=-3 / threads=12 / lookahead_threads=3 / sliced_threads=0 / nr=0 / decimate=1 / interlaced=0 / bluray_compat=0 / constrained_intra=0 / fgo=0 / bframes=12 / b_pyramid=2 / b_adapt=2 / b_bias=0 / direct=3 / weightb=1 / open_gop=0 / weightp=2 / keyint=250 / keyint_min=23 / scenecut=40 / intra_refresh=0 / rc_lookahead=60 / rc=crf / mbtree=0 / crf=16.7000 / qcomp=0.60 / qpmin=0 / qpmax=69 / qpstep=4 / vbv_maxrate=50000 / vbv_bufsize=62500 / crf_max=0.0 / nal_hrd=none / filler=0 / ip_ratio=1.40 / pb_ratio=1.30 / aq=3:0.90
    Language : English
    Default : Yes
    Forced : No
    Audio #1
    ID : 2
    Format : AC-3
    Format/Info : Audio Coding 3
    Mode extension : CM (complete main)
    Format settings, Endianness : Big
    Codec ID : A_AC3
    Duration : 2h 29mn
    Bit rate mode : Constant
    Bit rate : 448 Kbps
    Channel(s) : 6 channels
    Channel positions : Front: L C R, Side: L R, LFE
    Sampling rate : 48.0 KHz
    Compression mode : Lossy
    Stream size : 479 MiB (9%)
    Title : DUB
    Language : Russian
    Default : Yes
    Forced : No
    Audio #2
    ID : 3
    Format : AC-3
    Format/Info : Audio Coding 3
    Mode extension : CM (complete main)
    Format settings, Endianness : Big
    Codec ID : A_AC3
    Duration : 2h 29mn
    Bit rate mode : Constant
    Bit rate : 448 Kbps
    Channel(s) : 6 channels
    Channel positions : Front: L C R, Side: L R, LFE
    Sampling rate : 48.0 KHz
    Compression mode : Lossy
    Stream size : 479 MiB (9%)
    Title : AVO (U. Serbin)
    Language : Russian
    Default : No
    Forced : No
    Audio #3
    ID : 4
    Format : AC-3
    Format/Info : Audio Coding 3
    Mode extension : CM (complete main)
    Format settings, Endianness : Big
    Codec ID : A_AC3
    Duration : 2h 29mn
    Bit rate mode : Constant
    Bit rate : 448 Kbps
    Channel(s) : 6 channels
    Channel positions : Front: L C R, Side: L R, LFE
    Sampling rate : 48.0 KHz
    Compression mode : Lossy
    Stream size : 479 MiB (9%)
    Title : Original
    Language : English
    Default : No
    Forced : No
    Text #1
    ID : 5
    Format : UTF-8
    Codec ID : S_TEXT/UTF8
    Codec ID/Info : UTF-8 Plain Text
    Title : Forced
    Language : Russian
    Default : Yes
    Forced : No
    Text #2
    ID : 6
    Format : UTF-8
    Codec ID : S_TEXT/UTF8
    Codec ID/Info : UTF-8 Plain Text
    Title : Full
    Language : Russian
    Default : No
    Forced : No
    Text #3
    ID : 7
    Format : UTF-8
    Codec ID : S_TEXT/UTF8
    Codec ID/Info : UTF-8 Plain Text
    Title : Forced
    Language : English
    Default : No
    Forced : No
    Text #4
    ID : 8
    Format : UTF-8
    Codec ID : S_TEXT/UTF8
    Codec ID/Info : UTF-8 Plain Text
    Title : SDH
    Language : English
    Default : No
    Forced : No
    Menu
    00:00:00.000 : en:00:00:00.000
    00:08:16.121 : en:00:08:16.121
    00:13:38.776 : en:00:13:38.776
    00:24:51.407 : en:00:24:51.407
    00:29:03.033 : en:00:29:03.033
    00:32:05.841 : en:00:32:05.841
    00:40:32.013 : en:00:40:32.013
    00:45:29.644 : en:00:45:29.644
    00:53:29.665 : en:00:53:29.665
    01:01:05.662 : en:01:01:05.662
    01:10:01.614 : en:01:10:01.614
    01:16:12.318 : en:01:16:12.318
    01:24:45.455 : en:01:24:45.455
    01:28:39.731 : en:01:28:39.731
    01:35:35.188 : en:01:35:35.188
    01:41:13.985 : en:01:41:13.985
    01:46:35.806 : en:01:46:35.806
    01:50:02.179 : en:01:50:02.179
    01:53:55.203 : en:01:53:55.203
    01:56:15.260 : en:01:56:15.260
    02:01:51.095 : en:02:01:51.095
    02:12:07.211 : en:02:12:07.211
    02:17:13.934 : en:02:17:13.934
    02:20:20.287 : en:02:20:20.287

    Скриншоты




    Скачать .torrent

    Скачать торрент-файл бесплатно и на максимальной скорости!

    Как скачивать? · Что такое торрент? · Рейтинг и ограничения

    !ВНИМАНИЕ!
    Сайт не распространяет и не хранит электронные версии произведений, а занимается лишь лишь предоставлением доступа к создаваемому пользователями каталогу ссылок на торрент-файлы, которые содержат только списки хеш-сумм, убедительная просьба с жалобами обращаться напрямую к пользователю. Файлы для обмена на трекере предоставлены пользователями сайта, и администрация не несёт ответственности за их содержание. Просьба не заливать файлы, защищенные авторскими правами, а также файлы нелегального содержания!


    _________________
    [Профиль] [ЛС]
    Показать сообщения:    
    Ответить на тему

    Текущее время: Сегодня, в 09:59

    Часовой пояс: GMT + 2



    Вы не можете начинать темы
    Вы не можете отвечать на сообщения
    Вы не можете редактировать свои сообщения
    Вы не можете удалять свои сообщения
    Вы не можете голосовать в опросах
    Вы не можете прикреплять файлы к сообщениям
    Вы не можете скачивать файлы