BitTorrentTracker PerecTracker.org
BitTorrentTracker PerecTracker.org
    
Регистрация  ·  Вход
 
 · 
Забыли пароль?

  • Окулус / Oculus (Майк Флэнеган / Mike Flanagan) [2013, США, ужасы, триллер, BDRip-AVC] Dub + Sub (Rus, Eng)

    Ответить на тему
     
    Автор Сообщение

    Light

    Создавать темы 03-Дек-2015 00:11

           

    [Цитировать]

    Окулус
    Oculus
    «Хочешь жить – закрой глаза»

    Страна: США
    Жанр: ужасы, триллер
    Год выпуска: 2013
    Продолжительность: 01:44:03
    Перевод: Профессиональный (полное дублирование) [Лицензия iTunes]
    Субтитры: русские, английские, английские (SDH), английские (SDH COLORED)
    Оригинальная аудиодорожка: нет
    Режиссер: Майк Флэнеган / Mike Flanagan
    В ролях: Карен Гиллан, Брентон Туэйтс, Кэти Сакхофф, Рори Кокрейн, Анналиса Бассо, Гаррет Райан, Джеймс Лэфферти, Мигель Сандовал, Кейт Сигел, Скотт Грэхэм, Майкл Дж. Фуртик, Катрин Паркер
    Описание:
    Смерть родителей сильно повлияла на судьбу двух осиротевших детей. По прошествии времени, в двадцатилетнем возрасте, сестра все еще продолжает так считать и хочет доказать брату, что привидение, вышедшее из зеркала, стало причиной гибели близких людей и всех случившихся последующих бед... Релиз:
    Автор рипа: Stalker oK
    Сэмпл
    Качество видео: BDRip-AVC [Blu-ray Remux 1080p HDCLUB]
    Формат видео: MKV
    Видео кодек: AVC
    Аудио кодек: AC3
    Видео: 1614 Кбит/сек, 1056x440 (2.40:1), 23,976 кадр/сек, AVC
    Аудио: русский, 384 Кбит/сек, 48 КГц, 16 бит, 5.1, AC3
    Навигация по главам: есть

    Почему звук iTunes когда в сети есть лицензионный DVD R5?

    Звук iTunes оказался лучше по качеству выпущенного на DVD.
    ---------- DVD5 448 kbps --------- -------- iTunes 384 kbps ---------

    http://screenshotcomparison.com/comparison/88580

    MediaInfo

    General
    Unique ID : 217161381903702392233549121300933565850 (0xA35FC2C4EBEE8623883BB55B45C2DD9A)
    Complete name : M:\Rips\Oculus\Oculus.2013.BDRip-AVC.Dub.1.45Gb...stalkerok.new-team.mkv
    Format : Matroska
    File size : 1.45 GiB
    Duration : 1h 44mn
    Overall bit rate : 1 997 Kbps
    Movie name : Oculus (2013) (New-Team) (Rip by Stalker oK)
    Encoded date : UTC 2015-11-28 15:01:16
    Writing application : mkvmerge v7.9.0 ('Birds') 64bit
    Writing library : libebml v1.3.1 + libmatroska v1.4.2
    Video
    ID : 1
    Format : AVC
    Format/Info : Advanced Video Codec
    Format profile : High@L4.1
    Format settings, CABAC : Yes
    Format settings, ReFrames : 13 frames
    Codec ID : V_MPEG4/ISO/AVC
    Duration : 1h 44mn
    Bit rate : 1 614 Kbps
    Width : 1 056 pixels
    Height : 440 pixels
    Display aspect ratio : 2.40:1
    Frame rate : 23.976 fps
    Color space : YUV
    Chroma subsampling : 4:2:0
    Bit depth : 8 bits
    Scan type : Progressive
    Bits/(Pixel*Frame) : 0.145
    Stream size : 1.14 GiB (79%)
    Writing library : x264 core 146 r2538kMod 121396c
    Encoding settings : cabac=1 / ref=13 / deblock=1:-3:-3 / analyse=0x3:0x133 / me=umh / subme=11 / psy=1 / fade_compensate=0.00 / psy_rd=1.00:0.12 / mixed_ref=1 / me_range=48 / chroma_me=1 / trellis=2 / 8x8dct=1 / cqm=0 / deadzone=21,11 / fast_pskip=0 / chroma_qp_offset=-3 / threads=12 / lookahead_threads=3 / sliced_threads=0 / nr=0 / decimate=0 / interlaced=0 / bluray_compat=0 / constrained_intra=0 / fgo=0 / bframes=15 / b_pyramid=2 / b_adapt=2 / b_bias=0 / direct=3 / weightb=1 / open_gop=0 / weightp=2 / keyint=240 / keyint_min=23 / scenecut=40 / intra_refresh=0 / rc_lookahead=60 / rc=2pass / mbtree=0 / bitrate=1614 / ratetol=1.0 / qcomp=0.70 / qpmin=0 / qpmax=69 / qpstep=4 / cplxblur=20.0 / qblur=0.5 / vbv_maxrate=50000 / vbv_bufsize=62500 / nal_hrd=none / filler=0 / ip_ratio=1.40 / pb_ratio=1.30 / aq=3:0.90
    Audio
    ID : 2
    Format : AC-3
    Format/Info : Audio Coding 3
    Mode extension : CM (complete main)
    Codec ID : A_AC3
    Duration : 1h 44mn
    Bit rate mode : Constant
    Bit rate : 384 Kbps
    Channel(s) : 6 channels
    Channel positions : Front: L C R, Side: L R, LFE
    Sampling rate : 48.0 KHz
    Bit depth : 16 bits
    Compression mode : Lossy
    Stream size : 286 MiB (19%)
    Language : Russian
    Text #1
    ID : 3
    Format : UTF-8
    Codec ID : S_TEXT/UTF8
    Codec ID/Info : UTF-8 Plain Text
    Language : Russian
    Text #2
    ID : 4
    Format : UTF-8
    Codec ID : S_TEXT/UTF8
    Codec ID/Info : UTF-8 Plain Text
    Language : English
    Text #3
    ID : 5
    Format : UTF-8
    Codec ID : S_TEXT/UTF8
    Codec ID/Info : UTF-8 Plain Text
    Title : SDH
    Language : English
    Text #4
    ID : 6
    Format : UTF-8
    Codec ID : S_TEXT/UTF8
    Codec ID/Info : UTF-8 Plain Text
    Title : SDH COLORED
    Language : English
    Menu
    00:00:00.000 : en:Chapter 1
    00:03:10.689 : en:Chapter 2
    00:07:26.571 : en:Chapter 3
    00:12:32.750 : en:Chapter 4
    00:14:41.879 : en:Chapter 5
    00:19:54.317 : en:Chapter 6
    00:24:35.056 : en:Chapter 7
    00:30:56.395 : en:Chapter 8
    00:34:01.413 : en:Chapter 9
    00:39:20.148 : en:Chapter 10
    00:42:50.108 : en:Chapter 11
    00:46:09.931 : en:Chapter 12
    00:51:21.411 : en:Chapter 13
    00:54:53.581 : en:Chapter 14
    00:57:14.389 : en:Chapter 15
    01:01:54.251 : en:Chapter 16
    01:08:05.539 : en:Chapter 17
    01:11:46.591 : en:Chapter 18
    01:14:19.496 : en:Chapter 19
    01:19:14.750 : en:Chapter 20
    01:23:16.698 : en:Chapter 21
    01:28:45.235 : en:Chapter 22
    01:34:24.617 : en:Chapter 23
    01:37:17.997 : en:Chapter 24

    Скриншоты

    Скачать .torrent

    Скачать торрент-файл бесплатно и на максимальной скорости!

    Как скачивать? · Что такое торрент? · Рейтинг и ограничения

    !ВНИМАНИЕ!
    Сайт не распространяет и не хранит электронные версии произведений, а занимается лишь лишь предоставлением доступа к создаваемому пользователями каталогу ссылок на торрент-файлы, которые содержат только списки хеш-сумм, убедительная просьба с жалобами обращаться напрямую к пользователю. Файлы для обмена на трекере предоставлены пользователями сайта, и администрация не несёт ответственности за их содержание. Просьба не заливать файлы, защищенные авторскими правами, а также файлы нелегального содержания!


    _________________
    [Профиль] [ЛС]
    Показать сообщения:    
    Ответить на тему

    Текущее время: Сегодня, в 22:17

    Часовой пояс: GMT + 2



    Вы не можете начинать темы
    Вы не можете отвечать на сообщения
    Вы не можете редактировать свои сообщения
    Вы не можете удалять свои сообщения
    Вы не можете голосовать в опросах
    Вы не можете прикреплять файлы к сообщениям
    Вы не можете скачивать файлы