BitTorrentTracker PerecTracker.org
BitTorrentTracker PerecTracker.org
    
Регистрация  ·  Вход
 
 · 
Забыли пароль?

  • Тринадцатилетняя / Little Thirteen (Кристиан Кландт / Christian Klandt) [2012, Германия, драма, DVDRip] AVO (Юрий Сербин)

    Ответить на тему
     
    Автор Сообщение

    Light

    Создавать темы 03-Дек-2015 00:11

           

    [Цитировать]

    Тринадцатилетняя / Little Thirteen
    Страна: Германия
    Жанр: драма
    Год выпуска: 2012
    Продолжительность: 01:31:18
    Перевод: Авторский (одноголосый закадровый) Юрий Сербин
    Cубтитры: нет
    Оригинальная аудиодорожка: нет
    Режиссер: Кристиан Кландт / Christian Klandt
    В ролях: Мюриэль Уиммер, Антония Путилофф, Джозеф Конрад Бундшух, Изабелль Гершке, Филипп Кубитца, Герди Цинт, Гиза Флаке, Клаудиа Гайслер-Бадинг, Хирон Элиас Крэз, Пелагия Капоглоу
    Описание: Тринадцатилетняя Сара и ее лучшая подруга Чарли уже потеряли счет парням, с которыми спали: свидания на одну ночь, анонимные и неразличимые связи без обязательств. Но когда Сара знакомится в чате с 18-летним Лукасом, ее впервые охватывает жажда реальных отношений и даже настоящей любви. Но интересна ли она Лукасу? Или он просто использует Сару по причинам за гранью любви и привязанности? Тем временем, Чарли нужно разыскать отца своего будущего ребенка, а матери Сары нужно осознать тот факт, что ее дочь повзрослела... Три дня из жизни группы тинейджеров, пытающихся найти свое место в жизни.
    Рип сделан с раздачи rulle1. Моя благодарность ему и всем, кто ему помогал!
    Сэмпл: http://multi-up.com/1077240
    Качество видео: DVDRip (источник DVD9)
    Формат видео: AVI
    Видео: DivX, 720х304, 1841 кбит/с, 25 fps, 0,34 b/px
    Аудио: 48 kHz, AC3 Dolby Digital, 3/2 (L,C,R,l,r) + LFE ch, ~448 kbps

    MediaInfo

    Общее
    Полное имя : E:\Little.Thirteen_2012 DVDRip.avi
    Формат : AVI
    Формат/Информация : Audio Video Interleave
    Размер файла : 1,47 Гбайт
    Продолжительность : 1 ч. 31 м.
    Общий поток : 2298 Кбит/сек
    Программа кодирования : VirtualDubMod 1.5.10.3 | www.virtualdub-fr.org || (build 2550/release)
    Библиотека кодирования : VirtualDubMod build 2550/release
    Видео
    Идентификатор : 0
    Формат : MPEG-4 Visual
    Профиль формата : Advanced Simple@L5
    Параметр BVOP формата : 1
    Параметр QPel формата : Нет
    Параметр GMC формата : Без точки перехода
    Параметр матрицы формата : Default (MPEG)
    Идентификатор кодека : DX50
    Идентификатор кодека/Подсказка : DivX 5
    Продолжительность : 1 ч. 31 м.
    Битрейт : 1841 Кбит/сек
    Ширина : 720 пикселей
    Высота : 304 пикселя
    Соотношение сторон : 2,35:1
    Частота кадров : 25,000 кадров/сек
    Цветовое пространство : YUV
    Субдискретизация насыщенности : 4:2:0
    Битовая глубина : 8 бит
    Тип развёртки : Прогрессивная
    Метод сжатия : С потерями
    Бит/(Пиксели*Кадры) : 0.336
    Размер потока : 1,17 Гбайт (80%)
    Библиотека кодирования : XviD 1.2.1 (UTC 2008-12-04)
    Аудио
    Идентификатор : 1
    Формат : AC-3
    Формат/Информация : Audio Coding 3
    Расширение режима : CM (complete main)
    Параметр Endianness формата : Big
    Идентификатор кодека : 2000
    Продолжительность : 1 ч. 31 м.
    Вид битрейта : Постоянный
    Битрейт : 448 Кбит/сек
    Каналы : 6 каналов
    Расположение каналов : Front: L C R, Side: L R, LFE
    Частота : 48,0 КГц
    Метод сжатия : С потерями
    Размер потока : 293 Мбайт (19%)
    Выравнивание : Разделение по промежуткам
    Продолжительность промежутка : 40 мс. (1,00 видеокадр)
    Время предзагрузки промежутка : 500 мс.

    Скриншот c названием фильма

    Скриншоты

    Скачать .torrent

    Скачать торрент-файл бесплатно и на максимальной скорости!

    Как скачивать? · Что такое торрент? · Рейтинг и ограничения

    !ВНИМАНИЕ!
    Сайт не распространяет и не хранит электронные версии произведений, а занимается лишь лишь предоставлением доступа к создаваемому пользователями каталогу ссылок на торрент-файлы, которые содержат только списки хеш-сумм, убедительная просьба с жалобами обращаться напрямую к пользователю. Файлы для обмена на трекере предоставлены пользователями сайта, и администрация не несёт ответственности за их содержание. Просьба не заливать файлы, защищенные авторскими правами, а также файлы нелегального содержания!


    _________________
    [Профиль] [ЛС]
    Показать сообщения:    
    Ответить на тему

    Текущее время: Сегодня, в 14:35

    Часовой пояс: GMT + 2



    Вы не можете начинать темы
    Вы не можете отвечать на сообщения
    Вы не можете редактировать свои сообщения
    Вы не можете удалять свои сообщения
    Вы не можете голосовать в опросах
    Вы не можете прикреплять файлы к сообщениям
    Вы не можете скачивать файлы