BitTorrentTracker PerecTracker.org
BitTorrentTracker PerecTracker.org
    
Регистрация  ·  Вход
 
 · 
Забыли пароль?

  • Реконструкция / La reconstruccion (Хуан Таратуто / Juan Taratuto) [2013, Аргентина, драма, DVDRip] Sub Rus + Original Spa

    Ответить на тему
     
    Автор Сообщение

    Light

    Создавать темы 03-Дек-2015 00:11

           

    [Цитировать]

    Реконструкция / La reconstruccion
    Страна: Аргентина
    Жанр: драма
    Год выпуска: 2013
    Продолжительность: 01:30:12
    Перевод: Субтитры creo140
    Cубтитры: русские
    Оригинальная аудиодорожка: испанский
    Режиссер: Хуан Таратуто / Juan Taratuto
    В ролях: Диего Перетти, Клаудия Фонтан, Альфредо Касеро, Мария Касали, Евгения Агиляр, Эриель Перез, Рафаэль Солано, Матиас Кабрера
    Описание: Эдуардо работает в нефтяной промышленности. Он настолько занят своим делом, что отключен от любого типа эмоций. Кажется, вся его жизнь заключена в работе и в одной из комнат дома, в котором он живет в Рио-Гранде. Его одинокая рутина жизни изменяется, когда он, по приглашению друга едет в Ушуайя, на несколько дней. Встреча со старым другом и с его семьёй становится настоящим испытанием в его жизни.
    Доп. информация:

    Сэмпл: http://multi-up.com/1077346
    Качество видео: DVDRip
    Формат видео: AVI
    Видео: Xvid 704x288 23.976fps 1708kbps
    Аудио: Dolby AC3 48000Hz 6ch 448kbps
    Формат субтитров: softsub (SRT)

    Фрагмент субтитров

    163
    00:24:20,959 --> 00:24:21,966
    Помнишь, я же говорил тебе?
    164
    00:24:21,989 --> 00:24:23,606
    Мне нужно было пройти
    это обследование...
    165
    00:24:23,628 --> 00:24:24,407
    И я бы отдохнул за четыре дня?
    166
    00:24:24,629 --> 00:24:26,609
    Помнишь, я говорил тебе,
    парень подвёл меня?
    167
    00:24:26,731 --> 00:24:28,039
    Парень уволился.
    168
    00:24:30,035 --> 00:24:31,207
    Эдуардо, мы уже говорили об этом.
    169
    00:24:31,436 --> 00:24:34,542
    Я оставил тебе сообщения,
    у тебя в голосовой почте.
    170
    00:24:35,373 --> 00:24:36,408
    Она не может этим заняться...
    171
    00:24:36,641 --> 00:24:38,348
    Потому что она должна постоянно
    находиться рядом с девочками.
    172
    00:24:38,610 --> 00:24:40,556
    У одной тренировки на коньках,
    у другой занятия по английскому...
    173
    00:24:40,912 --> 00:24:42,755
    Она не сможет с этим справиться
    потому что, если честно...
    174
    00:24:43,215 --> 00:24:44,694
    Её совсем не интересуют
    дела в магазине.
    175
    00:24:45,550 --> 00:24:46,585
    Нет...
    - Извини меня.
    176
    00:24:46,818 --> 00:24:48,092
    Но ты совсем не интересуешься
    делами в магазине.
    177
    00:24:48,320 --> 00:24:49,765
    Всё нормально, я понимаю.

    MediaInfo

    Format : AVI
    Format/Info : Audio Video Interleave
    File size : 1.36 GiB
    Duration : 1h 30mn
    Overall bit rate : 2 166 Kbps
    Writing application : VirtualDubMod 1.5.10.2 (build 2540/release)
    Writing library : VirtualDubMod build 2540/release
    Video
    ID : 0
    Format : MPEG-4 Visual
    Format profile : Advanced Simple@L5
    Format settings, BVOP : 1
    Format settings, QPel : No
    Format settings, GMC : No warppoints
    Format settings, Matrix : Default (MPEG)
    Codec ID : XVID
    Codec ID/Hint : XviD
    Duration : 1h 30mn
    Bit rate : 1 709 Kbps
    Width : 704 pixels
    Height : 288 pixels
    Display aspect ratio : 2.40:1
    Frame rate : 23.976 fps
    Color space : YUV
    Chroma subsampling : 4:2:0
    Bit depth : 8 bits
    Scan type : Progressive
    Compression mode : Lossy
    Bits/(Pixel*Frame) : 0.352
    Stream size : 1.08 GiB (79%)
    Writing library : XviD 1.2.1 (UTC 2008-12-04)
    Audio
    ID : 1
    Format : AC-3
    Format/Info : Audio Coding 3
    Mode extension : CM (complete main)
    Format settings, Endianness : Big
    Codec ID : 2000
    Duration : 1h 30mn
    Bit rate mode : Constant
    Bit rate : 448 Kbps
    Channel(s) : 6 channels
    Channel positions : Front: L C R, Side: L R, LFE
    Sampling rate : 48.0 KHz
    Compression mode : Lossy
    Delay relative to video : 431ms
    Stream size : 289 MiB (21%)
    Alignment : Split accross interleaves
    Interleave, duration : 42 ms (1.00 video frame)
    Interleave, preload duration : 500 ms

    Скриншот c названием фильма

    Скриншоты

    Скачать .torrent

    Скачать торрент-файл бесплатно и на максимальной скорости!

    Как скачивать? · Что такое торрент? · Рейтинг и ограничения

    !ВНИМАНИЕ!
    Сайт не распространяет и не хранит электронные версии произведений, а занимается лишь лишь предоставлением доступа к создаваемому пользователями каталогу ссылок на торрент-файлы, которые содержат только списки хеш-сумм, убедительная просьба с жалобами обращаться напрямую к пользователю. Файлы для обмена на трекере предоставлены пользователями сайта, и администрация не несёт ответственности за их содержание. Просьба не заливать файлы, защищенные авторскими правами, а также файлы нелегального содержания!


    _________________
    [Профиль] [ЛС]
    Показать сообщения:    
    Ответить на тему

    Текущее время: Сегодня, в 02:34

    Часовой пояс: GMT + 2



    Вы не можете начинать темы
    Вы не можете отвечать на сообщения
    Вы не можете редактировать свои сообщения
    Вы не можете удалять свои сообщения
    Вы не можете голосовать в опросах
    Вы не можете прикреплять файлы к сообщениям
    Вы не можете скачивать файлы