BitTorrentTracker PerecTracker.org
BitTorrentTracker PerecTracker.org
    
Регистрация  ·  Вход
 
 · 
Забыли пароль?

  • SOS: Спасите наши шкуры / SOS: Save Our Skins (Кент Соби / Kent Sobey) [2014, Великобритания, Канада, США, Фантастика, ужасы, комедия, DVDRip] VO (Barin101) + Sub Rus + Original Eng

    Ответить на тему
     
    Автор Сообщение

    Light

    Создавать темы 03-Дек-2015 00:11

           

    [Цитировать]

    SOS: Спасите наши шкуры / SOS: Save Our Skins
    Страна: Великобритания, Канада, США
    Жанр: Фантастика, ужасы, комедия
    Год выпуска: 2014
    Продолжительность: 01:25:41
    Перевод: Одноголосый закадровый Barin101
    Cубтитры: русские Barin101, английские
    Оригинальная аудиодорожка: английский
    Режиссер: Кент Соби / Kent Sobey
    В ролях: Том Болтон, Майкл Чвастяк, Крис Хайвард, Джеймс МакДугалл и др.
    Описание: Двое странных парней просыпаются в гостинице в Нью-Йорке и обнаруживают, что на Земле все исчезли.
    Телефоны не работают, интернета нет, улицы пустынны. А по телевизору время от времени появляется видеоролик с башней и странной чёрной фигурой. Поняв, что они на Земле не одни, наши герои отправляются на поиски других выживших.
    Однако ребятам предстоит пройти долгий путь, прежде чем они узнают, что произошло и куда все пропали...
    Сэмпл: http://multi-up.com/1077399


    Качество видео: DVDRip
    Формат видео: AVI
    Видео: 720x384 (1.88:1), 23.976 fps, XviD build 50 ~1009 kbps avg, 0.15 bit/pixel
    Аудио: #1: 48 kHz, MPEG Layer 3, 2 ch, ~128.00 kbps avg РУС
    Аудио: #2: 48 kHz, MPEG Layer 3, 2 ch, ~117.19 kbps avg ENG
    Формат субтитров: softsub (SRT)

    MediaInfo

    General
    Complete name : A:\!Перевод фильмов\SOS Save our skins 2014\SOS Save our skins 2014.dvdrip.xvid.barin101.avi
    Format : AVI
    Format/Info : Audio Video Interleave
    File size : 780 MiB
    Duration : 1h 25mn
    Overall bit rate mode : Variable
    Overall bit rate : 1 273 Kbps
    Writing application : VirtualDubMod 1.5.10.2 (build 2540/release)
    Writing library : VirtualDubMod build 2540/release
    Video
    ID : 0
    Format : MPEG-4 Visual
    Format profile : Advanced Simple@L5
    Format settings, BVOP : 2
    Format settings, QPel : No
    Format settings, GMC : No warppoints
    Format settings, Matrix : Default (H.263)
    Codec ID : XVID
    Codec ID/Hint : XviD
    Duration : 1h 25mn
    Bit rate : 1 011 Kbps
    Width : 720 pixels
    Height : 384 pixels
    Display aspect ratio : 1.85:1
    Frame rate : 23.976 fps
    Color space : YUV
    Chroma subsampling : 4:2:0
    Bit depth : 8 bits
    Scan type : Progressive
    Compression mode : Lossy
    Bits/(Pixel*Frame) : 0.152
    Stream size : 620 MiB (79%)
    Writing library : XviD 1.2.1 (UTC 2008-12-04)
    Audio #1
    ID : 1
    Format : MPEG Audio
    Format version : Version 1
    Format profile : Layer 3
    Codec ID : 55
    Codec ID/Hint : MP3
    Duration : 1h 25mn
    Bit rate mode : Constant
    Bit rate : 128 Kbps
    Channel(s) : 2 channels
    Sampling rate : 48.0 KHz
    Compression mode : Lossy
    Stream size : 78.5 MiB (10%)
    Alignment : Aligned on interleaves
    Interleave, duration : 42 ms (1.00 video frame)
    Interleave, preload duration : 504 ms
    Audio #2
    ID : 2
    Format : MPEG Audio
    Format version : Version 1
    Format profile : Layer 3
    Mode : Joint stereo
    Mode extension : MS Stereo
    Codec ID : 55
    Codec ID/Hint : MP3
    Duration : 1h 25mn
    Bit rate mode : Variable
    Bit rate : 117 Kbps
    Nominal bit rate : 128 Kbps
    Channel(s) : 2 channels
    Sampling rate : 48.0 KHz
    Compression mode : Lossy
    Stream size : 71.8 MiB (9%)
    Alignment : Aligned on interleaves
    Interleave, duration : 24 ms (0.58 video frame)
    Interleave, preload duration : 455 ms
    Writing library : LAME3.99r
    Encoding settings : -m j -V 4 -q 2 -lowpass 17 --abr 128

    Скриншот c названием фильма

    Скриншоты



    Скачать .torrent

    Скачать торрент-файл бесплатно и на максимальной скорости!

    Как скачивать? · Что такое торрент? · Рейтинг и ограничения

    !ВНИМАНИЕ!
    Сайт не распространяет и не хранит электронные версии произведений, а занимается лишь лишь предоставлением доступа к создаваемому пользователями каталогу ссылок на торрент-файлы, которые содержат только списки хеш-сумм, убедительная просьба с жалобами обращаться напрямую к пользователю. Файлы для обмена на трекере предоставлены пользователями сайта, и администрация не несёт ответственности за их содержание. Просьба не заливать файлы, защищенные авторскими правами, а также файлы нелегального содержания!


    _________________
    [Профиль] [ЛС]
    Показать сообщения:    
    Ответить на тему

    Текущее время: Сегодня, в 19:51

    Часовой пояс: GMT + 2



    Вы не можете начинать темы
    Вы не можете отвечать на сообщения
    Вы не можете редактировать свои сообщения
    Вы не можете удалять свои сообщения
    Вы не можете голосовать в опросах
    Вы не можете прикреплять файлы к сообщениям
    Вы не можете скачивать файлы