BitTorrentTracker PerecTracker.org
BitTorrentTracker PerecTracker.org
    
Регистрация  ·  Вход
 
 · 
Забыли пароль?

  • Прежде чем мы расстанемся / Before We Go (Крис Эванс / Chris Evans) [2014, США, драма, мелодрама, комедия, BDRip-AVC] MVO + Original (Eng) + Sub (Rus, Eng)

    Ответить на тему
     
    Автор Сообщение

    Light

    Создавать темы 03-Дек-2015 00:11

           

    [Цитировать]

    Прежде чем мы расстанемся
    Before We Go
    «One night can change your whole life»

    Страна: США
    Жанр: драма, мелодрама, комедия
    Год выпуска: 2014
    Продолжительность: 01:35:24
    Перевод: Любительский (многоголосый, закадровый) [Студия "CCK Media Production" и NesTea]
    Субтитры: русские, английские, английские (SDH)
    Оригинальная аудиодорожка: Английский
    Режиссер: Крис Эванс / Chris Evans
    В ролях: Крис Эванс, Элис Ив, Мария Брейман, Эмма Фитцпатрик, Скотт Эванс, Бет Катехис, Джон Каллам, Марк Кассен, Дэниэл Спинк, Кевин Керолан, Пол Монте мл., Turhan Caylak
    Описание:
    Мужчина и женщина, ранее не знавшие друг друга, проводят ночь вместе. Противоречия, испытываемые героями в жизни, становятся основой для исследования друг друга и самих себя. Релиз:
    Автор рипа: Stalker oK
    Сэмпл
    Качество видео: BDRip-AVC [Blu-ray Remux 1080p HDSky]
    Формат видео: MKV
    Видео кодек: AVC
    Аудио кодек: AC3
    Видео: 2378 Кбит/сек, 1036*560 (1,850), в 23,976 кадр/сек, AVC
    Аудио #1: Russian, 448 Кбит/сек, 44,1 КГц, 16 бит, 6 канала(ов), AC-3
    Аудио #2: English, 448 Кбит/сек, 48,0 КГц, 16 бит, 6 канала(ов), AC-3
    Навигация по главам: есть

    Перевод/Озвучка

    Роли озвучивали: Андрей (ZikWal) Вишниветский, Даниил Сердюков, Александр Гринев, Андрей Гавжеев, Юлия Вишниветская, Евгений Труфанов, NesTea
    Перевод фильма: Pandem и Polmila

    MediaInfo

    Общее
    Уникальный идентификатор : 204661874235986359523072552307885889873 (0x99F87175FC05E8E48E87C9EA48D85951)
    Полное имя : M:\Rips\Before We Go\Before.We.Go.2014.BDRip-AVC.MVO.2.18Gb...stalkerok.new-team.mkv
    Формат : Matroska
    Размер файла : 2,18 Гбайт
    Продолжительность : 1 ч. 35 м.
    Общий поток : 3267 Кбит/сек
    Название фильма : Before We Go (2014) (New-Team) (Rip by Stalker oK)
    Дата кодирования : UTC 2015-11-30 18:22:47
    Программа кодирования : mkvmerge v7.9.0 ('Birds') 64bit
    Библиотека кодирования : libebml v1.3.1 + libmatroska v1.4.2
    Видео
    Идентификатор : 1
    Формат : AVC
    Формат/Информация : Advanced Video Codec
    Профиль формата : High@L4.1
    Параметр CABAC формата : Да
    Параметр ReFrames формата : 13 кадры
    Идентификатор кодека : V_MPEG4/ISO/AVC
    Продолжительность : 1 ч. 35 м.
    Битрейт : 2378 Кбит/сек
    Ширина : 1036 пикс.
    Высота : 560 пикс.
    Соотношение сторон : 1,850
    Частота кадров : 23,976 кадр/сек
    Цветовое пространство : YUV
    Подвыборка цветности : 4:2:0
    Битовая глубина : 8 бит
    Тип развёртки : Прогрессивная
    Бит/(Пиксели*Кадры) : 0.171
    Размер потока : 1,54 Гбайт (71%)
    Заголовок : Before We Go (2014) (New-Team) (Rip by Stalker oK)
    Библиотека кодирования : x264 core 146 r2538kMod 121396c
    Настройки программы : cabac=1 / ref=13 / deblock=1:-3:-3 / analyse=0x3:0x133 / me=umh / subme=11 / psy=1 / fade_compensate=0.00 / psy_rd=1.00:0.12 / mixed_ref=1 / me_range=48 / chroma_me=1 / trellis=2 / 8x8dct=1 / cqm=0 / deadzone=21,11 / fast_pskip=0 / chroma_qp_offset=-3 / threads=12 / lookahead_threads=3 / sliced_threads=0 / nr=0 / decimate=0 / interlaced=0 / bluray_compat=0 / constrained_intra=0 / fgo=0 / bframes=13 / b_pyramid=2 / b_adapt=2 / b_bias=0 / direct=3 / weightb=1 / open_gop=0 / weightp=2 / keyint=240 / keyint_min=23 / scenecut=40 / intra_refresh=0 / rc_lookahead=60 / rc=2pass / mbtree=0 / bitrate=2378 / ratetol=1.0 / qcomp=0.70 / qpmin=0 / qpmax=69 / qpstep=4 / cplxblur=20.0 / qblur=0.5 / vbv_maxrate=50000 / vbv_bufsize=62500 / nal_hrd=none / filler=0 / ip_ratio=1.40 / pb_ratio=1.30 / aq=3:0.90
    Аудио #1
    Идентификатор : 2
    Формат : AC-3
    Формат/Информация : Audio Coding 3
    Расширение режима : CM (complete main)
    Идентификатор кодека : A_AC3
    Продолжительность : 1 ч. 35 м.
    Вид битрейта : Постоянный
    Битрейт : 448 Кбит/сек
    Канал(ы) : 6 канала(ов)
    Расположение каналов : Front: L C R, Side: L R, LFE
    Частота : 44,1 КГц
    Битовая глубина : 16 бит
    Метод сжатия : С потерями
    Задержка видео : 4 мс.
    Размер потока : 306 Мбайт (14%)
    Заголовок : Студия "CCK Media Production" и NesTea
    Язык : Russian
    Аудио #2
    Идентификатор : 3
    Формат : AC-3
    Формат/Информация : Audio Coding 3
    Расширение режима : CM (complete main)
    Идентификатор кодека : A_AC3
    Продолжительность : 1 ч. 35 м.
    Вид битрейта : Постоянный
    Битрейт : 448 Кбит/сек
    Канал(ы) : 6 канала(ов)
    Расположение каналов : Front: L C R, Side: L R, LFE
    Частота : 48,0 КГц
    Битовая глубина : 16 бит
    Метод сжатия : С потерями
    Размер потока : 306 Мбайт (14%)
    Язык : English
    Текст #1
    Идентификатор : 4
    Формат : UTF-8
    Идентификатор кодека : S_TEXT/UTF8
    Идентификатор кодека/Информация : UTF-8 Plain Text
    Язык : Russian
    Текст #2
    Идентификатор : 5
    Формат : UTF-8
    Идентификатор кодека : S_TEXT/UTF8
    Идентификатор кодека/Информация : UTF-8 Plain Text
    Язык : English
    Текст #3
    Идентификатор : 6
    Формат : UTF-8
    Идентификатор кодека : S_TEXT/UTF8
    Идентификатор кодека/Информация : UTF-8 Plain Text
    Заголовок : SDH
    Язык : English
    Меню
    00:00:00.000 : en:Chapter 1
    00:04:17.548 : en:Chapter 2
    00:09:50.505 : en:Chapter 3
    00:15:49.572 : en:Chapter 4
    00:19:56.903 : en:Chapter 5
    00:25:43.375 : en:Chapter 6
    00:32:26.568 : en:Chapter 7
    00:38:29.347 : en:Chapter 8
    00:43:42.286 : en:Chapter 9
    00:48:25.485 : en:Chapter 10
    00:55:04.009 : en:Chapter 11
    01:04:37.414 : en:Chapter 12
    01:11:13.269 : en:Chapter 13
    01:18:03.720 : en:Chapter 14
    01:24:07.582 : en:Chapter 15
    01:29:14.097 : en:Chapter 16

    Скриншоты

    Скачать .torrent

    Скачать торрент-файл бесплатно и на максимальной скорости!

    Как скачивать? · Что такое торрент? · Рейтинг и ограничения

    !ВНИМАНИЕ!
    Сайт не распространяет и не хранит электронные версии произведений, а занимается лишь лишь предоставлением доступа к создаваемому пользователями каталогу ссылок на торрент-файлы, которые содержат только списки хеш-сумм, убедительная просьба с жалобами обращаться напрямую к пользователю. Файлы для обмена на трекере предоставлены пользователями сайта, и администрация не несёт ответственности за их содержание. Просьба не заливать файлы, защищенные авторскими правами, а также файлы нелегального содержания!


    _________________
    [Профиль] [ЛС]
    Показать сообщения:    
    Ответить на тему

    Текущее время: Сегодня, в 00:08

    Часовой пояс: GMT + 2



    Вы не можете начинать темы
    Вы не можете отвечать на сообщения
    Вы не можете редактировать свои сообщения
    Вы не можете удалять свои сообщения
    Вы не можете голосовать в опросах
    Вы не можете прикреплять файлы к сообщениям
    Вы не можете скачивать файлы