BitTorrentTracker PerecTracker.org
BitTorrentTracker PerecTracker.org
    
Регистрация  ·  Вход
 
 · 
Забыли пароль?

  • Попелюшка / Cinderella (Кеннет Брана ) [2015 р., драма, сімейний, фентезі, BDRip] DUB Ukr

    Ответить на тему
     
    Автор Сообщение

    older

    Создавать темы 02-Дек-2015 08:44

           

    [Цитировать]

    Попелюшка / Cinderella

    Рік випуску: 2015
    Країна: США, Великобританія
    Кіностудія / кінокомпанія: Allison Shearmur Productions, Beagle Pug Films, Genre Films
    Жанр: драма, сімейний, фентезі
    Тривалість: 01:45:22
    Субтитри: відсутні
    Переклад: дубльований (професійний)
    Аудіодоріжка: українська-Режисер: Кеннет Брана
    Сценарій: Кріс Вайц
    Продюсер: Девід Баррон, Саймон Кінберг, Еллісон Шермур-Світова прем'єра: 13 лютого 2015
    Прем'єра в Україні: 12 березня 2015, «B&H Film Distribution Company»
    Реліз на DVD: 1 вересня 2015, «Уолт Дісней Компані СНД»
    Реліз на Blu-Ray: 1 вересня 2015, «Уолт Дісней Компані СНД»
    Обмеження за віком: немає- -Актори: Лілі Джеймс, Кейт Бланшет, Річард Медден, Гелена Бонем Картер, Нонсо Анозі, Стеллан Скарсґард, Софі МакШера, Голлідей Ґрейнджер, Дерек Джекобі, Бен Чаплін-Сюжет: Батько молодої дівчини на ім'я Елла, залишившись вдівцем, одружується вдруге, і незабаром Елла опиняється наодинці з жадібними і заздрісними новими родичками - мачухою леді Тремейн і її дочками - Анастасією та Дрізелою. З господині будинку вона перетворюється на служницю, вічно забруднену сажею, за що і отримує від своїх зведених сестриць прізвисько - Попелюшка. Незважаючи на халепи, що спіткали її долю, Попелюшка не зневіряється, адже навіть у найважчі моменти знаходиться щось, що допомагає їй думати про хороше: наприклад, випадкова зустріч на лісовій стежці з прекрасним юнаком. Елла навіть не припускає, що зустрілася з самим принцом, і що незабаром Фея-хрещена назавжди змінить її життя на краще.-Формат: AVI
    Якість: BDRip
    Відео кодек: XviD
    Відео: 720x304 (2,35:1), 1509 kbps, 23.976 fps, 0.287 bit/pixel
    Аудіо: AC3, 48 kHz, 6 ch, 448 kbps-Джерело:

    MediaInfo

    Общее
    Полное имя                               : \Cinderella (2015) BDRip [ukr] [Hurtom].avi
    Формат                                   : AVI
    Формат/Информация                        : Audio Video Interleave
    Размер файла                             : 1,45 Гбайт
    Продолжительность                        : 1 ч. 45 м.
    Общий поток                              : 1966 Кбит/сек
    Программа кодирования                    : VirtualDubModUkr 1.5.10.2 (build 2542/release)
    Библиотека кодирования                   : VirtualDubMod build 2542/release
    Видео
    Идентификатор                            : 0
    Формат                                   : MPEG-4 Visual
    Профиль формата                          : Advanced Simple@L5
    Параметр BVOP формата                    : 1
    Параметр QPel формата                    : Нет
    Параметр GMC формата                     : Без точки перехода
    Параметр матрицы формата                 : Выборочная
    Идентификатор кодека                     : XVID
    Идентификатор кодека/Подсказка           : XviD
    Продолжительность                        : 1 ч. 45 м.
    Битрейт                                  : 1509 Кбит/сек
    Ширина                                   : 720 пикселей
    Высота                                   : 304 пикселя
    Соотношение сторон                       : 2,35:1
    Частота кадров                           : 23,976 кадра/сек
    Цветовое пространство                    : YUV
    Субдискретизация насыщенности            : 4:2:0
    Битовая глубина                          : 8 бит
    Тип развёртки                            : Прогрессивная
    Метод сжатия                             : С потерями
    Бит/(Пиксели*Кадры)                      : 0.287
    Размер потока                            : 1,11 Гбайт (77%)
    Библиотека кодирования                   : XviD 73
    Аудио
    Идентификатор                            : 1
    Формат                                   : AC-3
    Формат/Информация                        : Audio Coding 3
    Расширение режима                        : CM (complete main)
    Параметр Endianness формата              : Big
    Идентификатор кодека                     : 2000
    Продолжительность                        : 1 ч. 45 м.
    Вид битрейта                             : Постоянный
    Битрейт                                  : 448 Кбит/сек
    Каналы                                   : 6 каналов
    Расположение каналов                     : Front: L C R, Side: L R, LFE
    Частота                                  : 48,0 КГц
    Битовая глубина                          : 16 бит
    Метод сжатия                             : С потерями
    Размер потока                            : 338 Мбайт (23%)
    Выравнивание                             : Разделение по промежуткам
    Продолжительность промежутка             : 42  мс. (1,00 видеокадр)
    Время предзагрузки промежутка            : 500  мс.

    Скріншоти

    Скачать .torrent

    Скачать торрент-файл бесплатно и на максимальной скорости!

    Как скачивать? · Что такое торрент? · Рейтинг и ограничения

    !ВНИМАНИЕ!
    Сайт не распространяет и не хранит электронные версии произведений, а занимается лишь лишь предоставлением доступа к создаваемому пользователями каталогу ссылок на торрент-файлы, которые содержат только списки хеш-сумм, убедительная просьба с жалобами обращаться напрямую к пользователю. Файлы для обмена на трекере предоставлены пользователями сайта, и администрация не несёт ответственности за их содержание. Просьба не заливать файлы, защищенные авторскими правами, а также файлы нелегального содержания!


    _________________
    [Профиль] [ЛС]
    Показать сообщения:    
    Ответить на тему

    Текущее время: Сегодня, в 12:17

    Часовой пояс: GMT + 2



    Вы не можете начинать темы
    Вы не можете отвечать на сообщения
    Вы не можете редактировать свои сообщения
    Вы не можете удалять свои сообщения
    Вы не можете голосовать в опросах
    Вы не можете прикреплять файлы к сообщениям
    Вы не можете скачивать файлы