BitTorrentTracker PerecTracker.org
BitTorrentTracker PerecTracker.org
    
Регистрация  ·  Вход
 
 · 
Забыли пароль?

  • Завжди кажи «ТАК» / Yes Man (Пейтон Рід) [2008 р., комедія, BDRip] DUB (Blu-ray Disc) Ukr + Original + DVO (Новий канал) Ukr

    Ответить на тему
     
    Автор Сообщение

    older

    Создавать темы 01-Дек-2015 21:06

           

    [Цитировать]

    Завжди кажи «ТАК» / Yes Man

    Рік випуску: 2008
    Країна: США, Австралія
    Кіностудія / кінокомпанія: Warner Bros. Pictures, Village Roadshow Pictures
    Жанр: комедія
    Тривалість: 01:44:23
    Субтитри: відсутні
    Переклад 1: дубльований (професійний) Blu-ray Disc
    Переклад 2: багатоголосий, закадровий (професійний) - Новий канал (Окремим файлом)
    Аудіодоріжка: дві українські, англійська-Режисер: Пейтон Рід
    Сценарій: Ніколас Стіллер, Джерард Пол, Ендрю Моугел
    Продюсер: Девід Хейман, Річард Д. Занук, Брюс Берман-Світова прем'єра: 9 грудня 2008
    Прем'єра в Україні: 15 січня 2009
    Обмеження за віком: нема- -Актори: Джим Керрі, Зої Дешанель, Бредлі Купер, Джон Майкл Хіггінс, Різ Дербі, Денні Мастерсон, Теренс Стемп-Сюжет: Депресивний головний герой завжди і всім говорив «ні» — наприклад, друзям, якщо вони звуть кудись. Але в один прекрасний день він заключає договір, за яким завжди повинен відповідати «Так» на будь-яку пропозицію…-Формат: AVI
    Якість: BDRip
    Відео кодек: XviD
    Відео: 720x304 (2,35:1), 2079 kbps, 23.976 fps, 0.396 bit/pixel
    Аудіо 1: AC3, 48 kHz, 6 ch, 448 kbps - Blu-ray Disc
    Аудіо 2: AC3, 48 kHz, 6 ch, 448 kbps + Original
    Аудіо 3: AC3, 48 kHz, 2 ch, 192 kbps - Новий канал (Окремим файлом)-Джерело:

    Реліз

    Щира подяка панові: abodnya за запис, та зведення доріжки від Нового каналу.

    MediaInfo

    Общее
    Полное имя                               : \Yes Man (2008) [2xUkr & Eng] BDRip [Hurtom & HELLYWOOD]\Yes Man (2008) [Ukr & Eng] BDRip [Hurtom & HELLYWOOD].avi
    Формат                                   : AVI
    Формат/Информация                        : Audio Video Interleave
    Профиль формата                          : OpenDML
    Размер файла                             : 2,18 Гбайт
    Продолжительность                        : 1 ч. 44 м.
    Общий поток                              : 2993 Кбит/сек
    Название фильма                          : Завжди кажи «ТАК» / Yes Man (2008)
    Режиссёр                                 : HELLRAiSER (www.hellywood.ru) & BASTERD-94 (www.hurtom.com)
    Программа кодирования                    : VirtualDubMod 1.5.10.2 (build 2540/release)
    Библиотека кодирования                   : VirtualDubMod build 2540/release
    Правообладатель                          : HELLYWOOD & HURTOM
    Примечание                               : 14.04.2009
    Видео
    Идентификатор                            : 0
    Формат                                   : MPEG-4 Visual
    Профиль формата                          : Advanced Simple@L5
    Параметр BVOP формата                    : 1
    Параметр QPel формата                    : Нет
    Параметр GMC формата                     : Без точки перехода
    Параметр матрицы формата                 : Default (MPEG)
    Идентификатор кодека                     : XVID
    Идентификатор кодека/Подсказка           : XviD
    Продолжительность                        : 1 ч. 44 м.
    Битрейт                                  : 2079 Кбит/сек
    Ширина                                   : 720 пикселей
    Высота                                   : 304 пикселя
    Соотношение сторон                       : 16:9
    Соотношение сторон в оригинале           : 2,35:1
    Частота кадров                           : 23,976 кадра/сек
    Цветовое пространство                    : YUV
    Субдискретизация насыщенности            : 4:2:0
    Битовая глубина                          : 8 бит
    Тип развёртки                            : Прогрессивная
    Метод сжатия                             : С потерями
    Бит/(Пиксели*Кадры)                      : 0.396
    Размер потока                            : 1,52 Гбайт (69%)
    Библиотека кодирования                   : XviD 1.2.1 (UTC 2008-12-04)
    Аудио #1
    Идентификатор                            : 1
    Формат                                   : AC-3
    Формат/Информация                        : Audio Coding 3
    Расширение режима                        : CM (complete main)
    Параметр Endianness формата              : Big
    Идентификатор кодека                     : 2000
    Продолжительность                        : 1 ч. 44 м.
    Вид битрейта                             : Постоянный
    Битрейт                                  : 448 Кбит/сек
    Каналы                                   : 6 каналов
    Расположение каналов                     : Front: L C R, Side: L R, LFE
    Частота                                  : 48,0 КГц
    Битовая глубина                          : 16 бит
    Метод сжатия                             : С потерями
    Размер потока                            : 334 Мбайт (15%)
    Выравнивание                             : Разделение по промежуткам
    Продолжительность промежутка             : 42  мс. (1,00 видеокадр)
    Время предзагрузки промежутка            : 500  мс.
    Аудио #2
    Идентификатор                            : 2
    Формат                                   : AC-3
    Формат/Информация                        : Audio Coding 3
    Расширение режима                        : CM (complete main)
    Параметр Endianness формата              : Big
    Идентификатор кодека                     : 2000
    Продолжительность                        : 1 ч. 44 м.
    Вид битрейта                             : Постоянный
    Битрейт                                  : 448 Кбит/сек
    Каналы                                   : 6 каналов
    Расположение каналов                     : Front: L C R, Side: L R, LFE
    Частота                                  : 48,0 КГц
    Битовая глубина                          : 16 бит
    Метод сжатия                             : С потерями
    Размер потока                            : 334 Мбайт (15%)
    Выравнивание                             : Разделение по промежуткам
    Продолжительность промежутка             : 42  мс. (1,00 видеокадр)
    Время предзагрузки промежутка            : 500  мс.

    Скріншоти

    Скачать .torrent

    Скачать торрент-файл бесплатно и на максимальной скорости!

    Как скачивать? · Что такое торрент? · Рейтинг и ограничения

    !ВНИМАНИЕ!
    Сайт не распространяет и не хранит электронные версии произведений, а занимается лишь лишь предоставлением доступа к создаваемому пользователями каталогу ссылок на торрент-файлы, которые содержат только списки хеш-сумм, убедительная просьба с жалобами обращаться напрямую к пользователю. Файлы для обмена на трекере предоставлены пользователями сайта, и администрация не несёт ответственности за их содержание. Просьба не заливать файлы, защищенные авторскими правами, а также файлы нелегального содержания!


    _________________
    [Профиль] [ЛС]
    Показать сообщения:    
    Ответить на тему

    Текущее время: Сегодня, в 00:21

    Часовой пояс: GMT + 2



    Вы не можете начинать темы
    Вы не можете отвечать на сообщения
    Вы не можете редактировать свои сообщения
    Вы не можете удалять свои сообщения
    Вы не можете голосовать в опросах
    Вы не можете прикреплять файлы к сообщениям
    Вы не можете скачивать файлы