BitTorrentTracker PerecTracker.org
BitTorrentTracker PerecTracker.org
    
Регистрация  ·  Вход
 
 · 
Забыли пароль?

  • Шпигуне, вийди геть! / Tinker Tailor Soldier Spy / (Томас Альфредсон) [2011 р., драма, детектив, трилер, BDRip] MVO (1+1 ) Ukr + Original

    Ответить на тему
     
    Автор Сообщение

    older

    Создавать темы 01-Дек-2015 19:49

           

    [Цитировать]

    Шпигуне, вийди геть! / Tinker Tailor Soldier Spy

    Рік випуску: 2011
    Країна: Франція, США, Німеччина
    Кіностудія / кінокомпанія: StudioCanal, Karla Films, Paradis Films
    Жанр: драма, детектив, трилер
    Тривалість: 02:07:23
    Субтитри: відсутні
    Переклад: багатоголосий, закадровий (професійний) - 1+1
    Аудіодоріжка: українська, англійська-Режисер: Томас Альфредсон
    Сценарій: Бріджет О'Коннор, Пітер Строхал, Джон ле Карре
    Продюсер: Тім Беван, Ерік Феллнер, Робін Слово-Світова прем'єра: 5 вересня 2011
    Прем'єра в Україні: 8 грудня 2011, «TFD Film Ukraine»
    Реліз на DVD: 15 березня 2012, «New Dream media», «Новий Диск»
    Обмеження за віком: нема- -Актори: Ґері Олдмен / Gary Oldman, Колін Ферт / Colin Firth, Том Гарді / Tom Hardy, Джон Герт / John Hurt, Тобі Джонс / Toby Jones, Марк Стронґ / Mark Strong, Бенедікт Камбербетч / Benedict Cumberbatch, Кірен Гайдз / Ciaran Hinds, Костянтин Хабенський, Світлана Ходченкова-Сюжет: Багато співробітників британської розвідки здогадувалися, що в її керівництві давно засів "кріт", що працює на Росію. Але ті, хто наважувався про це заявляти відкрито, чомусь виявлялися у відставці. Решта вважали за краще мовчати. Але підтвердження існування російського агента прийшло із зовсім несподіваного боку. Починається таємне розслідування, очолюване перебуваючим у відставці Джорджем Смайлі. І ніхто, включаючи вище керівництво розвідки, не повинен здогадатися, що на крота знову оголошено полювання.-Формат: AVI
    Якість: BDRip
    Відео кодек: XviD
    Відео: 720x304 (2,35:1), 1856 kbps, 23.976 fps, 0.354 bit/pixel
    Аудіо 1: AC3, 48 kHz, 2 ch, 192 kbps - 1+1
    Аудіо 2: AC3, 48 kHz, 6 ch, 384 kbps - Original-Джерело:

    Реліз

    Щира подяка: п. Vasua95, OlegCena, за наданий сирий звук і п. Dim-ON, за українські відредаговані субтитри.

    MediaInfo

    Общее
    Полное имя                               : \Tinker Tailor Soldier Spy (2011) [Ukr & Eng] BDRip [Hurtom].avi
    Формат                                   : AVI
    Формат/Информация                        : Audio Video Interleave
    Профиль формата                          : OpenDML
    Размер файла                             : 2,18 Гбайт
    Продолжительность                        : 2 ч. 7 м.
    Общий поток                              : 2450 Кбит/сек
    Программа кодирования                    : VirtualDubMod 1.5.10.3 | www.virtualdub-fr.org || (build 2550/release)
    Библиотека кодирования                   : VirtualDubMod build 2550/release
    Видео
    Идентификатор                            : 0
    Формат                                   : MPEG-4 Visual
    Профиль формата                          : Advanced Simple@L5
    Параметр BVOP формата                    : 1
    Параметр QPel формата                    : Нет
    Параметр GMC формата                     : Без точки перехода
    Параметр матрицы формата                 : Default (MPEG)
    Идентификатор кодека                     : XVID
    Идентификатор кодека/Подсказка           : XviD
    Продолжительность                        : 2 ч. 7 м.
    Битрейт                                  : 1856 Кбит/сек
    Ширина                                   : 720 пикселей
    Высота                                   : 304 пикселя
    Соотношение сторон                       : 2,35:1
    Частота кадров                           : 23,976 кадра/сек
    Цветовое пространство                    : YUV
    Субдискретизация насыщенности            : 4:2:0
    Битовая глубина                          : 8 бит
    Тип развёртки                            : Прогрессивная
    Метод сжатия                             : С потерями
    Бит/(Пиксели*Кадры)                      : 0.354
    Размер потока                            : 1,65 Гбайт (76%)
    Библиотека кодирования                   : XviD 65
    Аудио #1
    Идентификатор                            : 1
    Формат                                   : AC-3
    Формат/Информация                        : Audio Coding 3
    Расширение режима                        : CM (complete main)
    Параметр Endianness формата              : Big
    Идентификатор кодека                     : 2000
    Продолжительность                        : 2 ч. 7 м.
    Вид битрейта                             : Постоянный
    Битрейт                                  : 192 Кбит/сек
    Каналы                                   : 2 канала
    Расположение каналов                     : Front: L R
    Частота                                  : 48,0 КГц
    Битовая глубина                          : 16 бит
    Метод сжатия                             : С потерями
    Размер потока                            : 175 Мбайт (8%)
    Выравнивание                             : Разделение по промежуткам
    Продолжительность промежутка             : 42  мс. (1,00 видеокадр)
    Время предзагрузки промежутка            : 500  мс.
    Аудио #2
    Идентификатор                            : 2
    Формат                                   : AC-3
    Формат/Информация                        : Audio Coding 3
    Расширение режима                        : CM (complete main)
    Параметр Endianness формата              : Big
    Идентификатор кодека                     : 2000
    Продолжительность                        : 2 ч. 7 м.
    Вид битрейта                             : Постоянный
    Битрейт                                  : 384 Кбит/сек
    Каналы                                   : 6 каналов
    Расположение каналов                     : Front: L C R, Side: L R, LFE
    Частота                                  : 48,0 КГц
    Битовая глубина                          : 16 бит
    Метод сжатия                             : С потерями
    Размер потока                            : 350 Мбайт (16%)
    Выравнивание                             : Разделение по промежуткам
    Продолжительность промежутка             : 42  мс. (1,00 видеокадр)
    Время предзагрузки промежутка            : 500  мс.

    Скріншоти

    Скачать .torrent

    Скачать торрент-файл бесплатно и на максимальной скорости!

    Как скачивать? · Что такое торрент? · Рейтинг и ограничения

    !ВНИМАНИЕ!
    Сайт не распространяет и не хранит электронные версии произведений, а занимается лишь лишь предоставлением доступа к создаваемому пользователями каталогу ссылок на торрент-файлы, которые содержат только списки хеш-сумм, убедительная просьба с жалобами обращаться напрямую к пользователю. Файлы для обмена на трекере предоставлены пользователями сайта, и администрация не несёт ответственности за их содержание. Просьба не заливать файлы, защищенные авторскими правами, а также файлы нелегального содержания!


    _________________
    [Профиль] [ЛС]

    -746

    Создавать темы 03-Июн-2016 21:40 (спустя 6 месяцев 2 дня)

           

    Топік був перенесений з форуму Закордонне кіно українською у форум Фільми 2011-2015 українською

    rechyn

    _________________
    Как бы ты высоко не летал, не забывай, с кем ты ползал..
     
    Показать сообщения:    
    Ответить на тему

    Текущее время: Сегодня, в 16:32

    Часовой пояс: GMT + 2



    Вы не можете начинать темы
    Вы не можете отвечать на сообщения
    Вы не можете редактировать свои сообщения
    Вы не можете удалять свои сообщения
    Вы не можете голосовать в опросах
    Вы не можете прикреплять файлы к сообщениям
    Вы не можете скачивать файлы