BitTorrentTracker PerecTracker.org
BitTorrentTracker PerecTracker.org
    
Регистрация  ·  Вход
 
 · 
Забыли пароль?

  • Поводир / The Guide / (Олесь Санін) [2014 р., драма, історичний, SATRip] Ukr

    Ответить на тему
     
    Автор Сообщение

    older

    Создавать темы 01-Дек-2015 16:55

           

    [Цитировать]

    Поводир / The Guide

    Рік випуску: 2014
    Країна: Україна
    Кіностудія / кінокомпанія: Pronto Film
    Жанр: драма, історичний
    Тривалість: 01:53:44
    Субтитри: відсутні
    Аудіодоріжка: українська, російська, англійська - (три мови в одній доріжці)-Режисер: Олесь Санін
    Продюсер: Олесь Санін, Ігор Савиченко, Максим Осадчий
    Сценарій: Олесь Санін, Олександр Ірванець, Ірен Роздобудько-Світова прем'єра: 10 жовтня 2014
    Прем'єра в Україні: 12 листопада 2014 «B&H Film Distribution Company»
    Обмеження за віком: нема- -Актори: Антон Святослав Грін, Станіслав Боклан, Олександр Кобзарь, Сусана "Джамала" Джамаладінова, Ірина Саніна-Сюжет: Прямуючи в Україну, яка в 30-ті роки переживала не найкращі часи, Майкл Шемрок був повен надій і планів. Інженер за фахом, він думав, що буде корисним у створенні соціалістичної держави майбутнього, у чому йому допомагатиме син Пітер. Однак американець помирає, отримавши секретні папери про репресії в країні, які виявилися в книзі Пітера. Десятирічному хлопчикові доводиться рятуватися втечею від поліції, що в подальшому приводить його до сліпого кобзаря Івана Кочерги. Музикант приймає нового друга як поводиря і намагається вберегти його від усіх тих жахливих речей, які відбуваються навколо них.-Формат: AVI
    Якість: SATRip
    Відео кодек: XviD
    Відео: 720x304 (2,35:1), 1626 kbps, 25,000 fps, 0.297 bit/pixel
    Аудіо: 48,0 kHz, MPEG Layer 2, 2 ch, 192.00 kbps-Джерело:

    MediaInfo

    Общее
    Полное имя                               : \Поводир (2014) [Ukr] SATRip [Hurtom].avi
    Формат                                   : AVI
    Формат/Информация                        : Audio Video Interleave
    Размер файла                             : 1,45 Гбайт
    Продолжительность                        : 1 ч. 53 м.
    Общий поток                              : 1828 Кбит/сек
    Программа кодирования                    : VirtualDubMod 1.5.10.3 | www.virtualdub-fr.org || (build 2550/release)
    Библиотека кодирования                   : VirtualDubMod build 2550/release
    Видео
    Идентификатор                            : 0
    Формат                                   : MPEG-4 Visual
    Профиль формата                          : Advanced Simple@L5
    Параметр BVOP формата                    : 1
    Параметр QPel формата                    : Нет
    Параметр GMC формата                     : Без точки перехода
    Параметр матрицы формата                 : Default (MPEG)
    Идентификатор кодека                     : XVID
    Идентификатор кодека/Подсказка           : XviD
    Продолжительность                        : 1 ч. 53 м.
    Битрейт                                  : 1626 Кбит/сек
    Ширина                                   : 720 пикселей
    Высота                                   : 304 пикселя
    Соотношение сторон                       : 2,35:1
    Частота кадров                           : 25,000 кадров/сек
    Цветовое пространство                    : YUV
    Субдискретизация насыщенности            : 4:2:0
    Битовая глубина                          : 8 бит
    Тип развёртки                            : Прогрессивная
    Метод сжатия                             : С потерями
    Бит/(Пиксели*Кадры)                      : 0.297
    Размер потока                            : 1,29 Гбайт (89%)
    Библиотека кодирования                   : XviD 65
    Аудио
    Идентификатор                            : 1
    Формат                                   : MPEG Audio
    Версия формата                           : Version 1
    Профиль формата                          : Layer 2
    Идентификатор кодека                     : 50
    Продолжительность                        : 1 ч. 53 м.
    Вид битрейта                             : Постоянный
    Битрейт                                  : 192 Кбит/сек
    Каналы                                   : 2 канала
    Частота                                  : 48,0 КГц
    Метод сжатия                             : С потерями
    Размер потока                            : 156 Мбайт (11%)
    Выравнивание                             : Соединение по промежуткам
    Продолжительность промежутка             : 40  мс. (1,00 видеокадр)
    Время предзагрузки промежутка            : 504  мс.

    Скріншоти

    Скачать .torrent

    Скачать торрент-файл бесплатно и на максимальной скорости!

    Как скачивать? · Что такое торрент? · Рейтинг и ограничения

    !ВНИМАНИЕ!
    Сайт не распространяет и не хранит электронные версии произведений, а занимается лишь лишь предоставлением доступа к создаваемому пользователями каталогу ссылок на торрент-файлы, которые содержат только списки хеш-сумм, убедительная просьба с жалобами обращаться напрямую к пользователю. Файлы для обмена на трекере предоставлены пользователями сайта, и администрация не несёт ответственности за их содержание. Просьба не заливать файлы, защищенные авторскими правами, а также файлы нелегального содержания!


    _________________
    [Профиль] [ЛС]
    Показать сообщения:    
    Ответить на тему

    Текущее время: Сегодня, в 12:46

    Часовой пояс: GMT + 2



    Вы не можете начинать темы
    Вы не можете отвечать на сообщения
    Вы не можете редактировать свои сообщения
    Вы не можете удалять свои сообщения
    Вы не можете голосовать в опросах
    Вы не можете прикреплять файлы к сообщениям
    Вы не можете скачивать файлы