BitTorrentTracker PerecTracker.org
BitTorrentTracker PerecTracker.org
    
Регистрация  ·  Вход
 
 · 
Забыли пароль?

  • Таємниці Ґравіті Фолз / Gravity Falls / 1 сезон (1-20 серії із 20) (Джон Аошіма, Джо Пітт, Аарон Спрінґер) [2012 р., анімація, комедія, фентезі, жахи, детектив, WEB-DLRip] DUB (LeDoyen Studio) Ukr + Original + Sub Eng

    Ответить на тему
     
    Автор Сообщение

    older

    Создавать темы 30-Ноя-2015 15:49

           

    [Цитировать]

    Таємниці Ґравіті Фолз / Gravity Falls / 1 сезон

    Рік випуску: 2012
    Країна: США
    Кіностудія / кінокомпанія: Walt Disney Television Animation
    Жанр: анімація, комедія, фентезі, жахи, детектив
    Тривалість: 1 серія: ~ 00:21:00
    Субтитри: англійські
    Переклад: дубльований (професійний) - LeDoyen Studio
    Аудіодоріжка: українська, англійська-Режисер: Джон Аошіма, Джо Пітт, Аарон Спрінґер
    Сценарій: Алекс Хірш, Метью Чепмен, Тімоті МакКеон
    Продюсер: Алекс Хірш, Роберт Рензетті, Тобіаш Трост-Світова прем'єра: 15 червня 2012
    Обмеження за віком: нема- -Актори: Джейсон Ріттер / Jason Ritter, Алекс Хірш / Alex Hirsch, Лінда Карделліні / Linda Cardellini, Кевін Майкл Річардсон / Kevin Michael Richardson, Ґрей ДеЛісл / Grey DeLisle, Ті Джей Міллер / T.J. Miller, Кейт Фергюсон / Keith Ferguson, Нейл Гамбургер / Neil Hamburger, Джон Ді Маджіоу / John Di Maggio-Сюжет: Історія розповідає про пригоди двох близнюків - Діппера і Мейбл і їхні батьки відправляють їх до далекого родича в тихе містечко Ґравіті Фолз. Але чи таке просте це місто? Родич, жителі і які ще таємниці чекають на цих першовідкривачів?-Формат: AVI
    Якість: WEB-DLRip
    Відео кодек: XviD
    Відео: 720x400 (16:9), 1749 kbps, 23.976 fps, 0.253 bit/pixel
    Аудіо 1: AC3, 48 kHz, 2 ch, 192 kbps - LeDoyen Studio
    Аудіо 2: AC3, 48 kHz, 2 ch, 192 kbps - Original
    Субтитри: англійська тип: програмні (м'які) формат: srt-Джерело:

    Реліз

    Переклад і озвучення виконано: LeDoyen Studio, на офіційне замовлення Disney character voices, International
    Щира подяка: п. xslim, voan за наданий сирий звук.

    MediaInfo

    Общее
    Полное имя                               : \Gravity Falls [Hurtom]\Season 1 [Hurtom]\01 - Tourist Trapped [Hurtom].avi
    Формат                                   : AVI
    Формат/Информация                        : Audio Video Interleave
    Размер файла                             : 325 Мбайт
    Продолжительность                        : 21 м.
    Общий поток                              : 2147 Кбит/сек
    Программа кодирования                    : VirtualDubMod 1.5.10.3 | www.virtualdub-fr.org || (build 2550/release)
    Библиотека кодирования                   : VirtualDubMod build 2550/release
    Видео
    Идентификатор                            : 0
    Формат                                   : MPEG-4 Visual
    Профиль формата                          : Advanced Simple@L5
    Параметр BVOP формата                    : 1
    Параметр QPel формата                    : Нет
    Параметр GMC формата                     : Без точки перехода
    Параметр матрицы формата                 : Default (MPEG)
    Идентификатор кодека                     : XVID
    Идентификатор кодека/Подсказка           : XviD
    Продолжительность                        : 21 м.
    Битрейт                                  : 1749 Кбит/сек
    Ширина                                   : 720 пикселей
    Высота                                   : 400 пикселей
    Соотношение сторон                       : 16:9
    Частота кадров                           : 23,976 кадра/сек
    Цветовое пространство                    : YUV
    Субдискретизация насыщенности            : 4:2:0
    Битовая глубина                          : 8 бит
    Тип развёртки                            : Прогрессивная
    Метод сжатия                             : С потерями
    Бит/(Пиксели*Кадры)                      : 0.253
    Размер потока                            : 265 Мбайт (81%)
    Библиотека кодирования                   : XviD 65
    Аудио #1
    Идентификатор                            : 1
    Формат                                   : AC-3
    Формат/Информация                        : Audio Coding 3
    Расширение режима                        : CM (complete main)
    Параметр Endianness формата              : Big
    Идентификатор кодека                     : 2000
    Продолжительность                        : 21 м.
    Вид битрейта                             : Постоянный
    Битрейт                                  : 192 Кбит/сек
    Каналы                                   : 2 канала
    Расположение каналов                     : Front: L R
    Частота                                  : 48,0 КГц
    Битовая глубина                          : 16 бит
    Метод сжатия                             : С потерями
    Размер потока                            : 29,0 Мбайт (9%)
    Выравнивание                             : Разделение по промежуткам
    Продолжительность промежутка             : 42  мс. (1,00 видеокадр)
    Время предзагрузки промежутка            : 500  мс.
    Аудио #2
    Идентификатор                            : 2
    Формат                                   : AC-3
    Формат/Информация                        : Audio Coding 3
    Расширение режима                        : CM (complete main)
    Параметр Endianness формата              : Big
    Идентификатор кодека                     : 2000
    Продолжительность                        : 21 м.
    Вид битрейта                             : Постоянный
    Битрейт                                  : 192 Кбит/сек
    Каналы                                   : 2 канала
    Расположение каналов                     : Front: L R
    Частота                                  : 48,0 КГц
    Битовая глубина                          : 16 бит
    Метод сжатия                             : С потерями
    Размер потока                            : 29,0 Мбайт (9%)
    Выравнивание                             : Разделение по промежуткам
    Продолжительность промежутка             : 42  мс. (1,00 видеокадр)
    Время предзагрузки промежутка            : 500  мс.

    Скріншоти

    Перелік серій

    01. Турист в пастці | Tourist Trapped
    02. Легенда про чудовисько | The Legend of the Gobblewonker
    03. Мисливці за головами | Headhunters
    04. Рука, гойдаюча Мейбл | The Hand That Rocks the Mabel
    05. Соромливість | The Inconveniencing
    06. Діппер проти мужності | Dipper vs. Manliness
    07. Двійник Діппера | Double Dipper
    08. Ірраціональний скарб | Irrational Treasure
    09. Порося мандрівника у часі | Time traveler's pig
    10. Боєві бійці | Fight Fighters
    11. Маленький Діппер | Little Dipper
    12. Літоувін | Summerween
    13. Мейбл - босс | Boss Mabel
    14. Бездонна яма | Bottomless Pit
    15. Саме дно | The Deep End
    16. Килим спотикання | Carpet Diem
    17. Хлопчики як зірки | Boyz Crazy
    18. Порося до початку часів | Land Before Swine
    19. Стрибуни по сновидінням | Dreamscaperers
    20. Ґідоен повертається | Gideon Rises
    Скачать .torrent

    Скачать торрент-файл бесплатно и на максимальной скорости!

    Как скачивать? · Что такое торрент? · Рейтинг и ограничения

    !ВНИМАНИЕ!
    Сайт не распространяет и не хранит электронные версии произведений, а занимается лишь лишь предоставлением доступа к создаваемому пользователями каталогу ссылок на торрент-файлы, которые содержат только списки хеш-сумм, убедительная просьба с жалобами обращаться напрямую к пользователю. Файлы для обмена на трекере предоставлены пользователями сайта, и администрация не несёт ответственности за их содержание. Просьба не заливать файлы, защищенные авторскими правами, а также файлы нелегального содержания!


    _________________
    [Профиль] [ЛС]
    Показать сообщения:    
    Ответить на тему

    Текущее время: Сегодня, в 12:38

    Часовой пояс: GMT + 2



    Вы не можете начинать темы
    Вы не можете отвечать на сообщения
    Вы не можете редактировать свои сообщения
    Вы не можете удалять свои сообщения
    Вы не можете голосовать в опросах
    Вы не можете прикреплять файлы к сообщениям
    Вы не можете скачивать файлы