BitTorrentTracker PerecTracker.org
BitTorrentTracker PerecTracker.org
    
Регистрация  ·  Вход
 
 · 
Забыли пароль?

  • Космос: подорож у просторі та часі / Cosmos: A Spacetime Odyssey / Сезон 1 (1-13 серії із 13) (Бреннон Браґа, Енн Друян, Білл Поуп) [2014 р., документальний, BDRip] MVO (National Geographic Україна) Ukr

    Ответить на тему
     
    Автор Сообщение

    older

    Создавать темы 29-Ноя-2015 14:13

           

    [Цитировать]

    Космос: подорож у просторі та часі / Cosmos: A Spacetime Odyssey

    Рік випуску: 2014
    Країна: США
    Кіностудія / кінокомпанія: Cosmos Studios, Fuzzy Door Productions, National Geographic Channel
    Жанр: документальний
    Режисер: Бреннон Браґа, Енн Друян, Білл Поуп
    Тривалість: 1 серія: ~ 00:45:00 (цілком серій: 13)
    Переклад: багатоголосий, закадровий (професійний)
    Субтитри: 1, 2 серії - присутні вбудовані субтитри на відрізок без озвучення (лише кілька реплік)
    Аудіодоріжка: українська--Актори: Ніл деҐрасс Тайсон (ведучий), Пітер Емшвіллер, Бетані Леві, Мехді Мералі, Сет МакФарлейн, Кірстен Данст, Піотр Майкл, Андре Сольюззо-Сюжет: Документальний серіал розповість про останні наукові відкриття, які були зроблені в астрономії, астрофізиці й інших науках. Астрофізик Ніл Деґрасс Тайсон розповість про відкриття законів світу космосу, спостережень за космічними процесами й про можливості нових космічних подорожей. Усі, навіть доволі складні поняття подаються із вражаючою чіткістю у поєднанні з природньою емоційністю, а комп’ютерна графіка й використання спеціальних ефектів роблять кожен епізод захоплюючим і незвичайним.-Формат: AVI
    Якість: BDRip
    Відео кодек: XviD
    Відео: 720x400 (16:9), 1600 kbps, 23,976 fps, 0.232 bit/pixel
    Аудіо: AC3, 48 kHz, 2 ch, 192 kbps-Джерело:

    MediaInfo

    Общее
    Полное имя                               : \Cosmos - A Spacetime Odyssey (Season 1) (2014) BDRip [ukr] [Hurtom]\[s01e01] Standing Up in the Milky Way.avi
    Формат                                   : AVI
    Формат/Информация                        : Audio Video Interleave
    Размер файла                             : 593 Мбайт
    Продолжительность                        : 46 м.
    Общий поток                              : 1801 Кбит/сек
    Программа кодирования                    : VirtualDubModUkr 1.5.10.2 (build 2542/release)
    Библиотека кодирования                   : VirtualDubMod build 2542/release
    Видео
    Идентификатор                            : 0
    Формат                                   : MPEG-4 Visual
    Профиль формата                          : Advanced Simple@L5
    Параметр BVOP формата                    : 2
    Параметр QPel формата                    : Нет
    Параметр GMC формата                     : Без точки перехода
    Параметр матрицы формата                 : Default (MPEG)
    Идентификатор кодека                     : XVID
    Идентификатор кодека/Подсказка           : XviD
    Продолжительность                        : 46 м.
    Битрейт                                  : 1600 Кбит/сек
    Ширина                                   : 720 пикселей
    Высота                                   : 400 пикселей
    Соотношение сторон                       : 16:9
    Частота кадров                           : 23,976 кадра/сек
    Цветовое пространство                    : YUV
    Субдискретизация насыщенности            : 4:2:0
    Битовая глубина                          : 8 бит
    Тип развёртки                            : Прогрессивная
    Метод сжатия                             : С потерями
    Бит/(Пиксели*Кадры)                      : 0.232
    Размер потока                            : 527 Мбайт (89%)
    Библиотека кодирования                   : XviD 1.2.1 (UTC 2008-12-04)
    Аудио
    Идентификатор                            : 1
    Формат                                   : AC-3
    Формат/Информация                        : Audio Coding 3
    Расширение режима                        : CM (complete main)
    Параметр Endianness формата              : Big
    Идентификатор кодека                     : 2000
    Продолжительность                        : 46 м.
    Вид битрейта                             : Постоянный
    Битрейт                                  : 192 Кбит/сек
    Каналы                                   : 2 канала
    Расположение каналов                     : Front: L R
    Частота                                  : 48,0 КГц
    Битовая глубина                          : 16 бит
    Метод сжатия                             : С потерями
    Размер потока                            : 63,2 Мбайт (11%)
    Выравнивание                             : Разделение по промежуткам
    Продолжительность промежутка             : 42  мс. (1,00 видеокадр)
    Время предзагрузки промежутка            : 500  мс.

    Скріншоти

    Перелік серій

    01. Standing Up in the Milky Way
    02. Some of the Things That Molecules Do
    03. When Knowledge Conquered Fear
    04. A Sky Full of Ghosts
    05. Hiding in the Light
    06. Deeper, Deeper, Deeper Still
    07. The Clean Room
    08. Sisters of the Sun
    09. The Lost Worlds of Planet Earth
    10. The Electric Boy
    11. The Immortals
    12. The World Set Free
    13. Unafraid of the Dark
    Скачать .torrent

    Скачать торрент-файл бесплатно и на максимальной скорости!

    Как скачивать? · Что такое торрент? · Рейтинг и ограничения

    !ВНИМАНИЕ!
    Сайт не распространяет и не хранит электронные версии произведений, а занимается лишь лишь предоставлением доступа к создаваемому пользователями каталогу ссылок на торрент-файлы, которые содержат только списки хеш-сумм, убедительная просьба с жалобами обращаться напрямую к пользователю. Файлы для обмена на трекере предоставлены пользователями сайта, и администрация не несёт ответственности за их содержание. Просьба не заливать файлы, защищенные авторскими правами, а также файлы нелегального содержания!


    _________________
    [Профиль] [ЛС]
    Показать сообщения:    
    Ответить на тему

    Текущее время: Сегодня, в 10:49

    Часовой пояс: GMT + 2



    Вы не можете начинать темы
    Вы не можете отвечать на сообщения
    Вы не можете редактировать свои сообщения
    Вы не можете удалять свои сообщения
    Вы не можете голосовать в опросах
    Вы не можете прикреплять файлы к сообщениям
    Вы не можете скачивать файлы