BitTorrentTracker PerecTracker.org
BitTorrentTracker PerecTracker.org
    
Регистрация  ·  Вход
 
 · 
Забыли пароль?

  • Таємниці Генія Шевченка (2014) SATRip

    Ответить на тему
     
    Автор Сообщение

    older

    Создавать темы 29-Ноя-2015 13:59

           

    [Цитировать]

    Таємниці Генія Шевченка (2014) SATRip

    Рік випуску: 2014
    Країна: Україна
    Кіностудія / кінокомпанія: 1+1
    Жанр: документальний, історичний
    Режисер: Тетяна Алферова
    Тривалість: 02:42:17
    Субтитри: відсутні
    Аудіодоріжка: українська-Сюжет: Cенсаційна прем'єра на 1+1. Фільм присвячений до 200-річчя від дня народження Тараса Шевченка. Усі парадокси, усі таємниці, кохання та нащадки. Ми багато чули і читали про знаменитого Кобзаря, але в історії життя улюбленого автора лишилося іще багато невідомого. Навіть сам факт народження Тараса Шевченка приховує чимало таємниць. До того ж досі не відомо, чи були у Кобзаря власні діти та чому цар Микола І насправді забороняв йому на засланні не тільки писати вірші, а й малювати.-Формат: AVI
    Якість: SATRip
    Відео кодек: XviD
    Відео: 704x416 (1,692), 1723 kbps, 25,000 fps, 0.235 bit/pixel
    Аудіо: 48,0 kHz, MPEG Layer 2, 2 ch, 192.00 kbps-Джерело:

    MediaInfo

    Общее
    Полное имя                               : \Таємниці Генія Шевченка (2014) SATRip [Hurtom].avi
    Формат                                   : AVI
    Формат/Информация                        : Audio Video Interleave
    Профиль формата                          : OpenDML
    Размер файла                             : 2,18 Гбайт
    Продолжительность                        : 2 ч. 42 м.
    Общий поток                              : 1927 Кбит/сек
    Программа кодирования                    : VirtualDubMod 1.5.10.2 (build 2540/release)
    Библиотека кодирования                   : VirtualDubMod build 2540/release
    Видео
    Идентификатор                            : 0
    Формат                                   : MPEG-4 Visual
    Профиль формата                          : Advanced Simple@L5
    Параметр BVOP формата                    : 1
    Параметр QPel формата                    : Нет
    Параметр GMC формата                     : Без точки перехода
    Параметр матрицы формата                 : Default (MPEG)
    Идентификатор кодека                     : XVID
    Идентификатор кодека/Подсказка           : XviD
    Продолжительность                        : 2 ч. 42 м.
    Битрейт                                  : 1723 Кбит/сек
    Ширина                                   : 704 пикселя
    Высота                                   : 416 пикселей
    Соотношение сторон                       : 1,692
    Частота кадров                           : 25,000 кадров/сек
    Цветовое пространство                    : YUV
    Субдискретизация насыщенности            : 4:2:0
    Битовая глубина                          : 8 бит
    Тип развёртки                            : Прогрессивная
    Метод сжатия                             : С потерями
    Бит/(Пиксели*Кадры)                      : 0.235
    Размер потока                            : 1,95 Гбайт (89%)
    Библиотека кодирования                   : XviD 1.2.1 (UTC 2008-12-04)
    Аудио
    Идентификатор                            : 1
    Формат                                   : MPEG Audio
    Версия формата                           : Version 1
    Профиль формата                          : Layer 2
    Идентификатор кодека                     : 50
    Продолжительность                        : 2 ч. 42 м.
    Вид битрейта                             : Постоянный
    Битрейт                                  : 192 Кбит/сек
    Каналы                                   : 2 канала
    Частота                                  : 48,0 КГц
    Метод сжатия                             : С потерями
    Размер потока                            : 223 Мбайт (10%)
    Выравнивание                             : Соединение по промежуткам
    Продолжительность промежутка             : 40  мс. (1,00 видеокадр)
    Время предзагрузки промежутка            : 504  мс.

    Скріншоти

    Скачать .torrent

    Скачать торрент-файл бесплатно и на максимальной скорости!

    Как скачивать? · Что такое торрент? · Рейтинг и ограничения

    !ВНИМАНИЕ!
    Сайт не распространяет и не хранит электронные версии произведений, а занимается лишь лишь предоставлением доступа к создаваемому пользователями каталогу ссылок на торрент-файлы, которые содержат только списки хеш-сумм, убедительная просьба с жалобами обращаться напрямую к пользователю. Файлы для обмена на трекере предоставлены пользователями сайта, и администрация не несёт ответственности за их содержание. Просьба не заливать файлы, защищенные авторскими правами, а также файлы нелегального содержания!


    _________________
    [Профиль] [ЛС]

    MaxSH

    Создавать темы 11-Мар-2016 21:11 (спустя 3 месяца 12 дней)

           

    [Цитировать]

    О, дякую.
    [Профиль] [ЛС]
    Показать сообщения:    
    Ответить на тему

    Текущее время: Сегодня, в 16:31

    Часовой пояс: GMT + 2



    Вы не можете начинать темы
    Вы не можете отвечать на сообщения
    Вы не можете редактировать свои сообщения
    Вы не можете удалять свои сообщения
    Вы не можете голосовать в опросах
    Вы не можете прикреплять файлы к сообщениям
    Вы не можете скачивать файлы