BitTorrentTracker PerecTracker.org
BitTorrentTracker PerecTracker.org
    
Регистрация  ·  Вход
 
 · 
Забыли пароль?

  • Рейд (2015) WEBRip 720p

    Ответить на тему
     
    Автор Сообщение

    older

    Создавать темы 29-Ноя-2015 11:38

           

    [Цитировать]

    Рейд (2015) WEBRip 720p

    Рік випуску: 2015
    Країна: Україна
    Кіностудія / кінокомпанія: Військове телебачення України, Film.ua
    Жанр: біографічний, документальний
    Режисер: Олексій Макухін
    Тривалість: 01:03:34
    Субтитри: відсутні
    Аудіодоріжка: українська-Сюжет: Це стрічка про безпрецедентний рейд українських десантників в тилу ворога під час наступу російської регулярної армії на Донбасі. Фільм створений за підтримки Міністерства оборони України та Генштабу Збройних сил України.-Формат: mp4
    Якість: WEBRip 720p
    Відео кодек: XviD
    Відео: 1280х720 (16:9), 1397 kbps, 25,000 fps, 0.061 bit/pixel
    Аудіо: 44,1 kHz, AAC, 2 ch, 192.00 kbps-
    Джерело:

    MediaInfo

    Общее
    Полное имя                               : \Рейд.mp4
    Формат                                   : MPEG-4
    Профиль формата                          : Base Media / Version 2
    Идентификатор кодека                     : mp42
    Размер файла                             : 724 Мбайт
    Продолжительность                        : 1 ч. 3 м.
    Режим общего битрейта                    : Переменный
    Общий поток                              : 1592 Кбит/сек
    Дата кодирования                         : UTC 2015-10-14 13:02:04
    Дата пометки                             : UTC 2015-10-14 13:02:04
    gsst                                     : 0
    gstd                                     : 3814085
    gssd                                     : BADC2152B
    gshh                                     : r11---sn-3c27ln7l.googlevideo.com
    Видео
    Идентификатор                            : 1
    Формат                                   : AVC
    Формат/Информация                        : Advanced Video Codec
    Профиль формата                          : High@L3.1
    Параметр CABAC формата                   : Да
    Параметр ReFrames формата                : 1 кадр
    Параметр GOP формата                     : M=1, N=60
    Идентификатор кодека                     : avc1
    Идентификатор кодека/Информация          : Advanced Video Coding
    Продолжительность                        : 1 ч. 3 м.
    Битрейт                                  : 1397 Кбит/сек
    Максимальный битрейт                     : 6228 Кбит/сек
    Ширина                                   : 1280 пикселей
    Высота                                   : 720 пикселей
    Соотношение сторон                       : 16:9
    Режим частоты кадров                     : Постоянный
    Частота кадров                           : 25,000 кадров/сек
    Цветовое пространство                    : YUV
    Субдискретизация насыщенности            : 4:2:0
    Битовая глубина                          : 8 бит
    Тип развёртки                            : Прогрессивная
    Бит/(Пиксели*Кадры)                      : 0.061
    Размер потока                            : 635 Мбайт (88%)
    Дата пометки                             : UTC 2015-10-14 13:03:09
    Аудио
    Идентификатор                            : 2
    Формат                                   : AAC
    Формат/Информация                        : Advanced Audio Codec
    Профиль формата                          : LC
    Идентификатор кодека                     : 40
    Продолжительность                        : 1 ч. 3 м.
    Вид битрейта                             : Переменный
    Битрейт                                  : 192 Кбит/сек
    Максимальный битрейт                     : 201 Кбит/сек
    Каналы                                   : 2 канала
    Расположение каналов                     : Front: L R
    Частота                                  : 44,1 КГц
    Метод сжатия                             : С потерями
    Размер потока                            : 87,3 Мбайт (12%)
    Заголовок                                : IsoMedia File Produced by Google, 5-11-2011
    Язык                                     : English
    Дата кодирования                         : UTC 2015-10-14 13:02:42
    Дата пометки                             : UTC 2015-10-14 13:03:09

    Скріншоти

    Скачать .torrent

    Скачать торрент-файл бесплатно и на максимальной скорости!

    Как скачивать? · Что такое торрент? · Рейтинг и ограничения

    !ВНИМАНИЕ!
    Сайт не распространяет и не хранит электронные версии произведений, а занимается лишь лишь предоставлением доступа к создаваемому пользователями каталогу ссылок на торрент-файлы, которые содержат только списки хеш-сумм, убедительная просьба с жалобами обращаться напрямую к пользователю. Файлы для обмена на трекере предоставлены пользователями сайта, и администрация не несёт ответственности за их содержание. Просьба не заливать файлы, защищенные авторскими правами, а также файлы нелегального содержания!


    _________________
    [Профиль] [ЛС]
    Показать сообщения:    
    Ответить на тему

    Текущее время: Сегодня, в 20:44

    Часовой пояс: GMT + 2



    Вы не можете начинать темы
    Вы не можете отвечать на сообщения
    Вы не можете редактировать свои сообщения
    Вы не можете удалять свои сообщения
    Вы не можете голосовать в опросах
    Вы не можете прикреплять файлы к сообщениям
    Вы не можете скачивать файлы