BitTorrentTracker PerecTracker.org
BitTorrentTracker PerecTracker.org
    
Регистрация  ·  Вход
 
 · 
Забыли пароль?

  • Зима у вогні / Winter On Fire: Ukraine's Fight for Freedom (2015) WEB-DLRip Ukr | Sub Eng

    Ответить на тему
     
    Автор Сообщение

    older

    Создавать темы 29-Ноя-2015 10:44

           

    [Цитировать]

    Зима у вогні / Winter On Fire: Ukraine's Fight for Freedom

    Рік випуску: 2015
    Країна: США, Великобританія, Україна
    Кіностудія / кінокомпанія: Afineevsky - Tolmor Production, Campbell Grobman Films, Netflix, Passion Pictures, Pray for Ukraine Production, Rock Paper Scissors, SPN Production, UkrStream TV
    Жанр: документальний
    Режисер: Євген Афінєєвський / Evgeny Afineevsky
    Тривалість: 01:39:54
    Субтитри: англійські
    Аудіодоріжка: українська, російська (дві мови в одній доріжці)--Сюжет: Фільм-хроніка показує 93-денний період зими 2013-2014, описуючи події як рух за громадянські права, що перетворюється на підтримувану мільйонами людей революцію і громадянську непокору.
    До нього увійшли інтерв’ю з протестувальниками, записи з місця подій та "великомасштабний" погляд на конфлікт, заявив Netflix.-Формат: AVI
    Якість: WEB-DLRip
    Відео кодек: XviD
    Відео: 720х400 (16:9), 1883 kbps, 29,970 fps, 0.218 bit/pixel
    Аудіо: AC3, 48 kHz, 2 ch, 192 kbps
    Субтитри: англійська тип: вбудовані (жорсткі)-Джерело:

    MediaInfo

    Общее
    Полное имя                               : \Winter on Fire. Ukraine's Fight for Freedom (2015) WEB-DLRip [Hurtom].avi
    Формат                                   : AVI
    Формат/Информация                        : Audio Video Interleave
    Размер файла                             : 1,46 Гбайт
    Продолжительность                        : 1 ч. 39 м.
    Общий поток                              : 2087 Кбит/сек
    Программа кодирования                    : VirtualDubMod 1.5.10.3 | www.virtualdub-fr.org || (build 2550/release)
    Библиотека кодирования                   : VirtualDubMod build 2550/release
    Видео
    Идентификатор                            : 0
    Формат                                   : MPEG-4 Visual
    Профиль формата                          : Advanced Simple@L5
    Параметр BVOP формата                    : 1
    Параметр QPel формата                    : Нет
    Параметр GMC формата                     : Без точки перехода
    Параметр матрицы формата                 : Default (MPEG)
    Идентификатор кодека                     : XVID
    Идентификатор кодека/Подсказка           : XviD
    Продолжительность                        : 1 ч. 39 м.
    Битрейт                                  : 1883 Кбит/сек
    Ширина                                   : 720 пикселей
    Высота                                   : 400 пикселей
    Соотношение сторон                       : 16:9
    Частота кадров                           : 29,970 кадров/сек
    Цветовое пространство                    : YUV
    Субдискретизация насыщенности            : 4:2:0
    Битовая глубина                          : 8 бит
    Тип развёртки                            : Прогрессивная
    Метод сжатия                             : С потерями
    Бит/(Пиксели*Кадры)                      : 0.218
    Размер потока                            : 1,31 Гбайт (90%)
    Библиотека кодирования                   : XviD 73
    Аудио
    Идентификатор                            : 1
    Формат                                   : AC-3
    Формат/Информация                        : Audio Coding 3
    Расширение режима                        : CM (complete main)
    Параметр Endianness формата              : Big
    Идентификатор кодека                     : 2000
    Продолжительность                        : 1 ч. 39 м.
    Вид битрейта                             : Постоянный
    Битрейт                                  : 192 Кбит/сек
    Каналы                                   : 2 канала
    Расположение каналов                     : Front: L R
    Частота                                  : 48,0 КГц
    Битовая глубина                          : 16 бит
    Метод сжатия                             : С потерями
    Размер потока                            : 137 Мбайт (9%)
    Выравнивание                             : Разделение по промежуткам
    Продолжительность промежутка             : 33  мс. (1,00 видеокадр)
    Время предзагрузки промежутка            : 500  мс.

    Скріншоти

    Скачать .torrent

    Скачать торрент-файл бесплатно и на максимальной скорости!

    Как скачивать? · Что такое торрент? · Рейтинг и ограничения

    !ВНИМАНИЕ!
    Сайт не распространяет и не хранит электронные версии произведений, а занимается лишь лишь предоставлением доступа к создаваемому пользователями каталогу ссылок на торрент-файлы, которые содержат только списки хеш-сумм, убедительная просьба с жалобами обращаться напрямую к пользователю. Файлы для обмена на трекере предоставлены пользователями сайта, и администрация не несёт ответственности за их содержание. Просьба не заливать файлы, защищенные авторскими правами, а также файлы нелегального содержания!


    _________________
    [Профиль] [ЛС]
    Показать сообщения:    
    Ответить на тему

    Текущее время: Сегодня, в 22:01

    Часовой пояс: GMT + 2



    Вы не можете начинать темы
    Вы не можете отвечать на сообщения
    Вы не можете редактировать свои сообщения
    Вы не можете удалять свои сообщения
    Вы не можете голосовать в опросах
    Вы не можете прикреплять файлы к сообщениям
    Вы не можете скачивать файлы