BitTorrentTracker PerecTracker.org
BitTorrentTracker PerecTracker.org
    
Регистрация  ·  Вход
 
 · 
Забыли пароль?

  • Край Землі: Зона АТО (2015) WEB-DL 1080p

    Ответить на тему
     
    Автор Сообщение

    older

    Создавать темы 29-Ноя-2015 09:27

           

    [Цитировать]

    Край Землі: Зона АТО (2015) WEB-DL 1080p

    Рік випуску: 2015
    Країна: Україна
    Кіностудія / кінокомпанія: 2+2
    Жанр: війскове відео
    Режисер: Крістіан Жереги
    Тривалість: 00:36:25
    Субтитри: відсутні
    Аудіодоріжка: українська, російська (дві мови в одній доріжці)-Сюжет: Край Землі - Зона АТО - це цикл документальних кінопортретів з передової. Історії про людей, які пішли на війну. Це історії добровольців з різних батальйонів: Айдар, Азов, Донбас, Правого сектора. Фільм знімався в зоні АТО влітку 2014 року, на лінії фронту від Луганська, Донецька, Дебальцеве до Маріуполя.-Формат: mp4
    Якість: WEB-DL 1080p
    Відео кодек: H.264
    Відео: 1920х1080 (16:9), 2553 kbps, 24,000 fps, 0.051 bit/pixel
    Аудіо: 44,1 kHz, AAC, 2 ch, 128.00 kbps-
    Джерело:

    MediaInfo

    Общее
    Полное имя                               : \Край Землі Зона АТО (HD).mp4
    Формат                                   : MPEG-4
    Профиль формата                          : Base Media
    Идентификатор кодека                     : isom
    Размер файла                             : 700 Мбайт
    Продолжительность                        : 36 м.
    Общий поток                              : 2687 Кбит/сек
    Программа кодирования                    : Lavf55.49.100
    Видео
    Идентификатор                            : 1
    Формат                                   : AVC
    Формат/Информация                        : Advanced Video Codec
    Профиль формата                          : High@L4.0
    Параметр CABAC формата                   : Да
    Параметр ReFrames формата                : 3 кадра
    Идентификатор кодека                     : avc1
    Идентификатор кодека/Информация          : Advanced Video Coding
    Продолжительность                        : 36 м.
    Битрейт                                  : 2553 Кбит/сек
    Ширина                                   : 1920 пикселей
    Высота                                   : 1080 пикселей
    Соотношение сторон                       : 16:9
    Режим частоты кадров                     : Постоянный
    Частота кадров                           : 24,000 кадра/сек
    Цветовое пространство                    : YUV
    Субдискретизация насыщенности            : 4:2:0
    Битовая глубина                          : 8 бит
    Тип развёртки                            : Прогрессивная
    Бит/(Пиксели*Кадры)                      : 0.051
    Размер потока                            : 665 Мбайт (95%)
    Аудио
    Идентификатор                            : 2
    Формат                                   : AAC
    Формат/Информация                        : Advanced Audio Codec
    Профиль формата                          : LC
    Идентификатор кодека                     : 40
    Продолжительность                        : 36 м.
    Вид битрейта                             : Постоянный
    Битрейт                                  : 128 Кбит/сек
    Каналы                                   : 2 канала
    Расположение каналов                     : Front: L R
    Частота                                  : 44,1 КГц
    Метод сжатия                             : С потерями
    Размер потока                            : 33,4 Мбайт (5%)

    Скріншоти

    Скачать .torrent

    Скачать торрент-файл бесплатно и на максимальной скорости!

    Как скачивать? · Что такое торрент? · Рейтинг и ограничения

    !ВНИМАНИЕ!
    Сайт не распространяет и не хранит электронные версии произведений, а занимается лишь лишь предоставлением доступа к создаваемому пользователями каталогу ссылок на торрент-файлы, которые содержат только списки хеш-сумм, убедительная просьба с жалобами обращаться напрямую к пользователю. Файлы для обмена на трекере предоставлены пользователями сайта, и администрация не несёт ответственности за их содержание. Просьба не заливать файлы, защищенные авторскими правами, а также файлы нелегального содержания!


    _________________
    [Профиль] [ЛС]
    Показать сообщения:    
    Ответить на тему

    Текущее время: Сегодня, в 09:00

    Часовой пояс: GMT + 2



    Вы не можете начинать темы
    Вы не можете отвечать на сообщения
    Вы не можете редактировать свои сообщения
    Вы не можете удалять свои сообщения
    Вы не можете голосовать в опросах
    Вы не можете прикреплять файлы к сообщениям
    Вы не можете скачивать файлы