BitTorrentTracker PerecTracker.org
BitTorrentTracker PerecTracker.org
    
Регистрация  ·  Вход
 
 · 
Забыли пароль?

  • Злочин без терміну давності. Крим (2015) SATRip

    Ответить на тему
     
    Автор Сообщение

    older

    Создавать темы 29-Ноя-2015 08:51

           

    [Цитировать]

    Злочин без терміну давності. Крим (2015) SATRip

    Рік випуску: 2015
    Країна: Україна
    Кіностудія / кінокомпанія: ICTV
    Жанр: документальний
    Тривалість: 00:48:00
    Субтитри: відсутні
    Аудіодоріжка: українська-Сюжет: Анексія Криму зруйнувала систему міжнародних відносин, що склалася після Другої Світової війни. Після падіння Рейху держави переможниці вирішили зробити, щоб унеможливити нові війни та анексії.
    Зараз Світ постав перед дилемою: змиритися з агресією і війною, або досягти відновлення міжнародного права, а також і територіальної цілісності України.-Формат: AVI
    Якість: DVDRip
    Відео кодек: XviD
    Відео: 720x400 (16:9), 1539 kbps, 25,000 fps, 0.214 bit/pixel
    Аудіо: 48,0 kHz, MPEG Layer 3, 2 ch, 192.00 kbps-
    Джерело:

    MediaInfo

    Общее
    Полное имя                               : \Злочин без терміну давності. Крим (2015) SATRip.by.simka.avi
    Формат                                   : AVI
    Формат/Информация                        : Audio Video Interleave
    Размер файла                             : 604 Мбайт
    Продолжительность                        : 48 м.
    Общий поток                              : 1741 Кбит/сек
    Программа кодирования                    : VirtualDubModRus 1.5.10.2 (build 2542/release)
    Библиотека кодирования                   : VirtualDubMod build 2542/release
    Видео
    Идентификатор                            : 0
    Формат                                   : MPEG-4 Visual
    Профиль формата                          : Advanced Simple@L5
    Параметр BVOP формата                    : 1
    Параметр QPel формата                    : Нет
    Параметр GMC формата                     : Без точки перехода
    Параметр матрицы формата                 : Default (MPEG)
    Идентификатор кодека                     : XVID
    Идентификатор кодека/Подсказка           : XviD
    Продолжительность                        : 48 м.
    Битрейт                                  : 1539 Кбит/сек
    Ширина                                   : 720 пикселей
    Высота                                   : 400 пикселей
    Соотношение сторон                       : 16:9
    Частота кадров                           : 25,000 кадров/сек
    Цветовое пространство                    : YUV
    Субдискретизация насыщенности            : 4:2:0
    Битовая глубина                          : 8 бит
    Тип развёртки                            : Прогрессивная
    Метод сжатия                             : С потерями
    Бит/(Пиксели*Кадры)                      : 0.214
    Размер потока                            : 534 Мбайт (88%)
    Библиотека кодирования                   : XviD 1.2.1 (UTC 2008-12-04)
    Аудио
    Идентификатор                            : 1
    Формат                                   : MPEG Audio
    Версия формата                           : Version 1
    Профиль формата                          : Layer 3
    Режим                                    : Joint stereo
    Расширение режима                        : MS Stereo
    Идентификатор кодека                     : 55
    Идентификатор кодека/Подсказка           : MP3
    Продолжительность                        : 48 м.
    Вид битрейта                             : Постоянный
    Битрейт                                  : 192 Кбит/сек
    Каналы                                   : 2 канала
    Частота                                  : 48,0 КГц
    Метод сжатия                             : С потерями
    Размер потока                            : 66,7 Мбайт (11%)
    Выравнивание                             : Соединение по промежуткам
    Продолжительность промежутка             : 40  мс. (1,00 видеокадр)
    Время предзагрузки промежутка            : 504  мс.
    Библиотека кодирования                   : LAME3.99r
    Настройки программы                      : -m j -V 4 -q 2 -lowpass 18.6 -b 192

    Скріншоти

    Скачать .torrent

    Скачать торрент-файл бесплатно и на максимальной скорости!

    Как скачивать? · Что такое торрент? · Рейтинг и ограничения

    !ВНИМАНИЕ!
    Сайт не распространяет и не хранит электронные версии произведений, а занимается лишь лишь предоставлением доступа к создаваемому пользователями каталогу ссылок на торрент-файлы, которые содержат только списки хеш-сумм, убедительная просьба с жалобами обращаться напрямую к пользователю. Файлы для обмена на трекере предоставлены пользователями сайта, и администрация не несёт ответственности за их содержание. Просьба не заливать файлы, защищенные авторскими правами, а также файлы нелегального содержания!


    _________________
    [Профиль] [ЛС]
    Показать сообщения:    
    Ответить на тему

    Текущее время: Сегодня, в 18:50

    Часовой пояс: GMT + 2



    Вы не можете начинать темы
    Вы не можете отвечать на сообщения
    Вы не можете редактировать свои сообщения
    Вы не можете удалять свои сообщения
    Вы не можете голосовать в опросах
    Вы не можете прикреплять файлы к сообщениям
    Вы не можете скачивать файлы