Register  ·  Log in
Forgot password?

  • The World's Greatest Magic - Finger Ring Magic [Фокусы с кольцами, tricks with ring, DVDRip, ENG] (Видеоурок)

    Reply to topic
    Author Message


    Post 28-Jul-2013 12:24



    The World's Greatest Magic - Finger Ring Magic
    Страна: USA
    Тематика: Фокусы с кольцами, tricks with ring
    Тип раздаваемого материала: Видеоурок
    Продолжительность: 02:05:03
    Язык: Английский
    Перевод: Отсутствует
    Превью и описание на английском: YouTube: 7BSZeX276e4
    Описание: Фокусы с обычным кольцом, в основном с чем нибудь еще, веревки итп. Отличное дополнение к divorce и reflex
    Качество: DVDRip
    Формат: MP4
    Видео кодек: DivX
    Аудио кодек: MP3
    Системные требования: MediaPlayer
    Видео: DivX, 416*288, 1.4, 315 kbps, 29.97 fps
    Аудио: MP3, 64 kbps, 32 kHz, 2 ch


    Format : DivX
    Format/Info : Hack of AVI
    File size : 350 MiB
    Duration : 2h 5mn
    Overall bit rate : 391 Kbps
    ID : 0
    Format : MPEG-4 Visual
    Format settings, BVOP : Yes
    Format settings, QPel : No
    Format settings, GMC : No warppoints
    Format settings, Matrix : Default (H.263)
    Codec ID : DX50
    Codec ID/Hint : DivX 5
    Duration : 2h 5mn
    Bit rate : 315 Kbps
    Width : 416 pixels
    Height : 288 pixels
    Display aspect ratio : 1.444
    Frame rate : 29.970 fps
    Resolution : 8 bits
    Colorimetry : 4:2:0
    Scan type : Progressive
    Bits/(Pixel*Frame) : 0.088
    Stream size : 282 MiB (81%)
    Title : Video
    Writing library : DivX 6.2.5 (UTC 2006-07)
    ID : 1
    Format : MPEG Audio
    Format version : Version 1
    Format profile : Layer 3
    Mode : Dual mono
    Codec ID : 55
    Codec ID/Hint : MP3
    Duration : 2h 5mn
    Bit rate mode : Constant
    Bit rate : 64.0 Kbps
    Channel(s) : 2 channels
    Sampling rate : 32.0 KHz
    Stream size : 57.2 MiB (16%)
    Alignment : Split accross interleaves
    Interleave, duration : 33 ms (1.00 video frame)
    Interleave, preload duration : 500 ms
    Title : Audio


    Download .torrent

    Download free and at maximum speed!

    How to Download? · What is a torrent? · Ratings and Limitations

    The site does not extend and does not store electronic(digital) versions of products, and only gives access to a reference catalogue created by users on torrent-files which contain only lists of the hash-sums, the earnest entreaty, with complaints(abuse) to access directly to the user. Files for an exchange on tracker are given by users of a site, and the administration does not bear the responsibility for their maintenance. The request to not fill in the files protected by copyrights, and also files of the illegal maintenance!

    [Profile] [PM]
    Display posts from previous:    
    Reply to topic

    The time now is: Today 21:00

    All times are GMT + 3 Hours

    You cannot post new topics in this forum
    You cannot reply to topics in this forum
    You cannot edit your posts in this forum
    You cannot delete your posts in this forum
    You cannot vote in polls in this forum
    You cannot attach files in this forum
    You cannot download files in this forum