BitTorrentTracker PerecTracker.org
BitTorrentTracker PerecTracker.org
    
Регистрация  ·  Вход
 
 · 
Забыли пароль?

  • The World's Greatest Magic - Finger Ring Magic [Фокусы с кольцами, tricks with ring, DVDRip, ENG] (Видеоурок)

    Ответить на тему
     
    Автор Сообщение

    Columb

    Создавать темы 28-Июл-2013 11:24

           

    [Цитировать]

    The World's Greatest Magic - Finger Ring Magic
    Страна: USA
    Тематика: Фокусы с кольцами, tricks with ring
    Тип раздаваемого материала: Видеоурок
    Продолжительность: 02:05:03
    Язык: Английский
    Перевод: Отсутствует
    Превью и описание на английском: http://www.penguinmagic.com/p/S6194 YouTube: 7BSZeX276e4
    Описание: Фокусы с обычным кольцом, в основном с чем нибудь еще, веревки итп. Отличное дополнение к divorce и reflex
    Качество: DVDRip
    Формат: MP4
    Видео кодек: DivX
    Аудио кодек: MP3
    Системные требования: MediaPlayer
    Видео: DivX, 416*288, 1.4, 315 kbps, 29.97 fps
    Аудио: MP3, 64 kbps, 32 kHz, 2 ch

    MediaInfo

    Format : DivX
    Format/Info : Hack of AVI
    File size : 350 MiB
    Duration : 2h 5mn
    Overall bit rate : 391 Kbps
    Video
    ID : 0
    Format : MPEG-4 Visual
    Format settings, BVOP : Yes
    Format settings, QPel : No
    Format settings, GMC : No warppoints
    Format settings, Matrix : Default (H.263)
    Codec ID : DX50
    Codec ID/Hint : DivX 5
    Duration : 2h 5mn
    Bit rate : 315 Kbps
    Width : 416 pixels
    Height : 288 pixels
    Display aspect ratio : 1.444
    Frame rate : 29.970 fps
    Resolution : 8 bits
    Colorimetry : 4:2:0
    Scan type : Progressive
    Bits/(Pixel*Frame) : 0.088
    Stream size : 282 MiB (81%)
    Title : Video
    Writing library : DivX 6.2.5 (UTC 2006-07)
    Audio
    ID : 1
    Format : MPEG Audio
    Format version : Version 1
    Format profile : Layer 3
    Mode : Dual mono
    Codec ID : 55
    Codec ID/Hint : MP3
    Duration : 2h 5mn
    Bit rate mode : Constant
    Bit rate : 64.0 Kbps
    Channel(s) : 2 channels
    Sampling rate : 32.0 KHz
    Stream size : 57.2 MiB (16%)
    Alignment : Split accross interleaves
    Interleave, duration : 33 ms (1.00 video frame)
    Interleave, preload duration : 500 ms
    Title : Audio

    Скриншоты

    Скачать .torrent

    Скачать торрент-файл бесплатно и на максимальной скорости!

    Как скачивать? · Что такое торрент? · Рейтинг и ограничения

    !ВНИМАНИЕ!
    Сайт не распространяет и не хранит электронные версии произведений, а занимается лишь лишь предоставлением доступа к создаваемому пользователями каталогу ссылок на торрент-файлы, которые содержат только списки хеш-сумм, убедительная просьба с жалобами обращаться напрямую к пользователю. Файлы для обмена на трекере предоставлены пользователями сайта, и администрация не несёт ответственности за их содержание. Просьба не заливать файлы, защищенные авторскими правами, а также файлы нелегального содержания!

    [Профиль] [ЛС]
    Показать сообщения:    
    Ответить на тему

    Текущее время: Сегодня, в 16:37

    Часовой пояс: GMT + 2



    Вы не можете начинать темы
    Вы не можете отвечать на сообщения
    Вы не можете редактировать свои сообщения
    Вы не можете удалять свои сообщения
    Вы не можете голосовать в опросах
    Вы не можете прикреплять файлы к сообщениям
    Вы не можете скачивать файлы