BitTorrentTracker PerecTracker.org
BitTorrentTracker PerecTracker.org
    
Регистрация  ·  Вход
 
 · 
Забыли пароль?

  • Хлібна гільйотина (2008) DVDRip

    Ответить на тему
     
    Автор Сообщение

    older

    Создавать темы 28-Ноя-2015 10:11

           

    [Цитировать]

    Хлібна гільйотина (2008) DVDRip

    Рік випуску: 2008
    Країна: Україна
    Кіностудія / кінокомпанія: Студія Телекон
    Режисер: Ігор Кобрин
    Жанр: історичний, документальний
    Тривалість: 01:26:26
    Субтитри: відсутні
    Аудіодоріжка: українська
    Сюжет: Фільм "Хлібна гільйотина" створено до 75-х роковин Голодомору 1932-1933 років в Україні. На документальному матеріалі розкрито причини, перебіг і масштаби цього страхітливого явища новітньої історії.
    Вже сама назва фільму відображає винайдену Володимиром Леніним формулу терору голодом, яка дозволяла більшовикам тримати народи у повній покорі упродовж семи десятиліть. Саме ця формула призвела до трагічної соціальної і гуманітарної катастрофи української нації, наслідки якої не подолані ще й сьогодні.-Формат: AVI
    Якість: DVDRip
    Відео кодек: XviD
    Відео: 720x576 (5:4), 1980 kbps, 25,000 fps, 0.191 bit/pixel
    Аудіо: 44,1 kHz, MPEG Layer 3, 2 ch, 128.00 kbps-Джерело:

    MediaInfo

    Общее
    Полное имя                               : \HLIBNA_GILIOTYNA\Hlibna_Giliotyna_01.avi
    Формат                                   : AVI
    Формат/Информация                        : Audio Video Interleave
    Размер файла                             : 443 Мбайт
    Продолжительность                        : 29 м.
    Общий поток                              : 2121 Кбит/сек
    Программа кодирования                    : Lavf51.12.1
    Видео
    Идентификатор                            : 0
    Формат                                   : xvid
    Идентификатор кодека                     : xvid
    Продолжительность                        : 29 м.
    Битрейт                                  : 1980 Кбит/сек
    Ширина                                   : 720 пикселей
    Высота                                   : 576 пикселей
    Соотношение сторон                       : 5:4
    Частота кадров                           : 25,000 кадров/сек
    Стандарт вещания                         : PAL
    Бит/(Пиксели*Кадры)                      : 0.191
    Размер потока                            : 414 Мбайт (93%)
    Аудио
    Идентификатор                            : 1
    Формат                                   : MPEG Audio
    Версия формата                           : Version 1
    Профиль формата                          : Layer 3
    Режим                                    : Joint stereo
    Расширение режима                        : MS Stereo
    Идентификатор кодека                     : 55
    Идентификатор кодека/Подсказка           : MP3
    Продолжительность                        : 29 м.
    Вид битрейта                             : Постоянный
    Битрейт                                  : 128 Кбит/сек
    Каналы                                   : 2 канала
    Частота                                  : 44,1 КГц
    Метод сжатия                             : С потерями
    Размер потока                            : 26,7 Мбайт (6%)
    Выравнивание                             : Соединение по промежуткам
    Продолжительность промежутка             : 26  мс. (0,65 видеокадр)
    Библиотека кодирования                   : LAME3.97

    Скріншоти

    Скачать .torrent

    Скачать торрент-файл бесплатно и на максимальной скорости!

    Как скачивать? · Что такое торрент? · Рейтинг и ограничения

    !ВНИМАНИЕ!
    Сайт не распространяет и не хранит электронные версии произведений, а занимается лишь лишь предоставлением доступа к создаваемому пользователями каталогу ссылок на торрент-файлы, которые содержат только списки хеш-сумм, убедительная просьба с жалобами обращаться напрямую к пользователю. Файлы для обмена на трекере предоставлены пользователями сайта, и администрация не несёт ответственности за их содержание. Просьба не заливать файлы, защищенные авторскими правами, а также файлы нелегального содержания!


    _________________
    [Профиль] [ЛС]
    Показать сообщения:    
    Ответить на тему

    Текущее время: Сегодня, в 02:32

    Часовой пояс: GMT + 2



    Вы не можете начинать темы
    Вы не можете отвечать на сообщения
    Вы не можете редактировать свои сообщения
    Вы не можете удалять свои сообщения
    Вы не можете голосовать в опросах
    Вы не можете прикреплять файлы к сообщениям
    Вы не можете скачивать файлы