BitTorrentTracker PerecTracker.org
BitTorrentTracker PerecTracker.org
    
Регистрация  ·  Вход
 
 · 
Забыли пароль?

  • Голодомор. Україна, ХХ століття: Технологія геноциду (2005) DVDRip

    Ответить на тему
     
    Автор Сообщение

    older

    Создавать темы 28-Ноя-2015 01:11

           

    [Цитировать]

    Голодомор. Україна, ХХ століття: Технологія геноциду (2005) DVDRip

    Рік випуску: 2005
    Країна: Україна
    Режисер: Віктор Дерюгін
    Жанр: історичний, документальний
    Тривалість: 1 серія- 00:57:33; 2 серія- 00:52:54
    Субтитри: відсутні
    Аудіодоріжка: українська-Сюжет: «Голодомор. Геноцид ХХ століття» — це один із документальних фільмів, який привернув велику увагу суспільства. Адже в ньому не просто розповідається про страшний геноцид українського народу в ХХ столітті, а й надаються коментарі свідків геноциду та їхніх нащадків. Цей фільм з великим резонансом пройшов по Першому національному. Цей двосерійний фільм створено Фондом «Україна 3000» спільно із Національною телекомпанією України.-Формат: AVI
    Якість: DVDRip
    Відео кодек: XviD
    Відео: 720x576 (5:4), 1399 kbps, 25,000 fps, 0.135 bit/pixel
    Аудіо: AC3, 48 kHz, 2 ch, 192 kbps-Джерело:

    MediaInfo

    Общее
    Полное имя                               : \Holodomor\Holodomor-1_(by_fazza).avi
    Формат                                   : AVI
    Формат/Информация                        : Audio Video Interleave
    Профиль формата                          : OpenDML
    Настройки формата                        : rec
    Размер файла                             : 657 Мбайт
    Продолжительность                        : 57 м.
    Общий поток                              : 1597 Кбит/сек
    Программа кодирования                    : #1 DVD Ripper  6.0, Dec 14 2007  12:06:49
    Видео
    Идентификатор                            : 0
    Формат                                   : MPEG-4 Visual
    Профиль формата                          : Advanced Simple@L5
    Параметр BVOP формата                    : 3
    Параметр QPel формата                    : Нет
    Параметр GMC формата                     : Без точки перехода
    Параметр матрицы формата                 : Default (H.263)
    Режим смешивания                         : Сжатый битовый поток
    Идентификатор кодека                     : XVID
    Идентификатор кодека/Подсказка           : XviD
    Продолжительность                        : 57 м.
    Битрейт                                  : 1399 Кбит/сек
    Ширина                                   : 720 пикселей
    Высота                                   : 576 пикселей
    Соотношение сторон                       : 5:4
    Частота кадров                           : 25,000 кадров/сек
    Стандарт вещания                         : PAL
    Цветовое пространство                    : YUV
    Субдискретизация насыщенности            : 4:2:0
    Битовая глубина                          : 8 бит
    Тип развёртки                            : Прогрессивная
    Метод сжатия                             : С потерями
    Бит/(Пиксели*Кадры)                      : 0.135
    Размер потока                            : 576 Мбайт (88%)
    Библиотека кодирования                   : XviD 1.1.0 (UTC 2005-11-22)
    Аудио
    Идентификатор                            : 1
    Формат                                   : AC-3
    Формат/Информация                        : Audio Coding 3
    Расширение режима                        : CM (complete main)
    Параметр Endianness формата              : Big
    Идентификатор кодека                     : 2000
    Продолжительность                        : 57 м.
    Вид битрейта                             : Постоянный
    Битрейт                                  : 192 Кбит/сек
    Каналы                                   : 2 канала
    Расположение каналов                     : Front: L R
    Частота                                  : 48,0 КГц
    Битовая глубина                          : 16 бит
    Метод сжатия                             : С потерями
    Размер потока                            : 79,0 Мбайт (12%)
    Выравнивание                             : Соединение по промежуткам
    Продолжительность промежутка             : 64  мс. (1,60 видеокадра)
    Время предзагрузки промежутка            : 192  мс.
    Заголовок                                : aptemp_audio

    Скріншоти

    Основний час роздачі: 06:00 - 13:00 UA
    Скачать .torrent

    Скачать торрент-файл бесплатно и на максимальной скорости!

    Как скачивать? · Что такое торрент? · Рейтинг и ограничения

    !ВНИМАНИЕ!
    Сайт не распространяет и не хранит электронные версии произведений, а занимается лишь лишь предоставлением доступа к создаваемому пользователями каталогу ссылок на торрент-файлы, которые содержат только списки хеш-сумм, убедительная просьба с жалобами обращаться напрямую к пользователю. Файлы для обмена на трекере предоставлены пользователями сайта, и администрация не несёт ответственности за их содержание. Просьба не заливать файлы, защищенные авторскими правами, а также файлы нелегального содержания!


    _________________
    [Профиль] [ЛС]
    Показать сообщения:    
    Ответить на тему

    Текущее время: Сегодня, в 02:57

    Часовой пояс: GMT + 2



    Вы не можете начинать темы
    Вы не можете отвечать на сообщения
    Вы не можете редактировать свои сообщения
    Вы не можете удалять свои сообщения
    Вы не можете голосовать в опросах
    Вы не можете прикреплять файлы к сообщениям
    Вы не можете скачивать файлы