BitTorrentTracker PerecTracker.org
BitTorrentTracker PerecTracker.org
    
Регистрация  ·  Вход
 
 · 
Забыли пароль?

  • Слуга народа (Серии: 1-24 из 24) (Алексей Кирющенко) [2015, Политическая комедия , WEB-DLRip 1080p]

    Ответить на тему
     
    Автор Сообщение

    Враг Нароода

    Создавать темы 22-Ноя-2015 15:30

           

    [Цитировать]

    ----Слуга народа Сезон 1 , Серии 1-24 из 24----Год выпуска: 2015
    Выпущено: Украина, Студия «Квартал-95»
    Жанр: Политическая комедия
    Продолжительность: 00:25:00
    Сезон: 1
    Серии: 1-24
    Количество серий в сезоне: 24
    Перевод :Не требуется
    Субтитры: Нет----Режиссер: Алексей Кирющенко --В ролях: Владимир Зеленский, Анна Кошмал, Наталия Сумская, Виктор Сарайкин, Екатерина Кистень, Станислав Боклан, Евгений Кошевой, Александр Пикалов, Юрий Крапов, Елена Кравец--Что будет, если президентом станет обычный человек из народа? Новый, честный, принципиальный и, самое главное, — умный человек. Именно эти мысли однажды сподвигли народ избрать президентом простого учителя истории Василия Голобородько… Неожиданно для всех страна получила гаранта, который живет в обычной квартире. Который спокойно идет по улице без армии охранников и запросто ездит на маршрутке, который получает скромную зарплату и иногда занимает у друга «до зарплаты». В общем, который живет — как все. Ведь он точно знает — когда «царь» начнет жить как простой учитель, вскоре простой учитель заживет как царь!
    И пускай у него нет серебряных пуль и осинового кола, каждое утро Василий Петрович выходит на борьбу с «нечистой силой» и без устали «воюет» с армадой коррумпированных и насквозь прогнивших чинуш, разгребает «авгиевы конюшни» государства. Правда, он не учел одного. Система, где все привыкли безбожно воровать, откатывать и дерибанить — будет против такой заботы о народе.
    ----Качество :WEB-DLRip 1080p
    Формат: MKV
    Видео кодек: H264
    Видео: 4030Кбит/сек,1920х1080(16.9),в 29.976кадр/сек,AVC(High@L4)(CABAC/2 Ref Frames)
    Аудио Кодек:AC3
    Аудио Russian Dolby Digital 5.1:AC3 , 384 Kbps, 48.0 KHz, 6 ch--

    Доп. информация:

    Звуковая дорожка сделана путем наложения чистого голоса озвучивателей на центральный канал оригинальной дорожки. Качество идентично звуковой дорожке.
    --

    MediaInfo

    Общее
    Уникальный идентификатор : 220033807592398369660477214732217090150 (0xA588F84A2F5F1D6EA3D87B6943D20066)
    Полное имя : D:\К О М Е Д И И\Слуга народа\The_servant_of_the_people_2015_S01_RUS[Ukrainian_Studio_Quarter-95]_H264_DD5.1_N.B_WEB-DLRip_1080p\The_servant_of_the_people_2015_S01Е01-Е04_RUS[Studio_Quarter-95]_H264_DD5.1_N.B_WEB-DLRip_1080p.mkv
    Формат : Matroska
    Версия формата : Version 4 / Version 2
    Размер файла : 3,01 Гбайт
    Продолжительность : 1 ч. 35 м.
    Режим общего битрейта : Переменный
    Общий поток : 4503 Кбит/сек
    Название фильма : The_servant_of_the_people_2015_S01Е01-Е04_RUS[Ukrainian]_H264_DD5.1_N.B_WEB-DLRip_1080p
    Дата кодирования : UTC 2015-11-20 16:55:07
    Программа кодирования : mkvmerge v8.5.2 ('Crosses') 64bit
    Библиотека кодирования : libebml v1.3.3 + libmatroska v1.4.4
    DURATION : 01:35:41.410000000
    NUMBER_OF_FRAMES : 179418
    NUMBER_OF_BYTES : 275586048
    _STATISTICS_WRITING_APP : mkvmerge v8.5.2 ('Crosses') 64bit
    _STATISTICS_WRITING_DATE_UTC : 2015-11-20 16:55:07
    _STATISTICS_TAGS : BPS DURATION NUMBER_OF_FRAMES NUMBER_OF_BYTES
    Видео
    Идентификатор : 1
    Формат : AVC
    Формат/Информация : Advanced Video Codec
    Профиль формата : High@L4
    Параметр CABAC формата : Да
    Параметр ReFrames формата : 2 кадра
    Параметр GOP формата : M=2, N=15
    Идентификатор кодека : V_MPEG4/ISO/AVC
    Продолжительность : 1 ч. 35 м.
    Вид битрейта : Переменный
    Битрейт : 4030 Кбит/сек
    Максимальный битрейт : 16,0 Мбит/сек
    Ширина : 1920 пикселей
    Высота : 1080 пикселей
    Соотношение сторон : 16:9
    Режим частоты кадров : Постоянный
    Частота кадров : 29,970 кадров/сек
    Цветовое пространство : YUV
    Субдискретизация насыщенности : 4:2:0
    Битовая глубина : 8 бит
    Тип развёртки : Прогрессивная
    Бит/(Пиксели*Кадры) : 0.065
    Размер потока : 2,69 Гбайт (89%)
    Язык : English
    Default : Нет
    Forced : Нет
    Аудио
    Идентификатор : 2
    Формат : AC-3
    Формат/Информация : Audio Coding 3
    Расширение режима : CM (complete main)
    Параметр Endianness формата : Big
    Идентификатор кодека : A_AC3
    Продолжительность : 1 ч. 35 м.
    Вид битрейта : Постоянный
    Битрейт : 384 Кбит/сек
    Каналы : 6 каналов
    Расположение каналов : Front: L C R, Side: L R, LFE
    Частота : 48,0 КГц
    Метод сжатия : С потерями
    Размер потока : 263 Мбайт (9%)
    Default : Нет
    Forced : Нет
    --

    Скриншоты

    ----

    Как закачать отдельный файл

    1. Открыть торрент
    2. Снять галки с тех файлов торрента, которые мы не хотим закачивать. Оставляем только на нужных нам файлах (файле).
    3. Нажать О.К.
    В клиенте utorrent
    Инструкция
    1) Открыть торрент

    2) Снять галки с тех файлов торрента, которые мы не хотим закачивать:
    * либо вручную, снимая с каждого файла галку( скрин №1)
    * либо, нажав кнопку "Снять метки (Select None)", сняв сразу со всех файлов(скрин №2)
    №1

    №2

    Оставляем только на нужных нам файлах (файле).

    3)Нажать О.К
    ------Внимание!!! 12.12. 2015. РАЗДАЧА ОБНОВЛЕНА. ФИНАЛ СЕЗОНА.ОБНОВИТЕ ТОРЕНТ ФАЙЛ.ПРИЯТНОГО ПРОСМОТРА . --Релиз от: Nikolai.Baranov & PIRATIYA --------
    Скачать .torrent

    Скачать торрент-файл бесплатно и на максимальной скорости!

    Как скачивать? · Что такое торрент? · Рейтинг и ограничения

    !ВНИМАНИЕ!
    Сайт не распространяет и не хранит электронные версии произведений, а занимается лишь лишь предоставлением доступа к создаваемому пользователями каталогу ссылок на торрент-файлы, которые содержат только списки хеш-сумм, убедительная просьба с жалобами обращаться напрямую к пользователю. Файлы для обмена на трекере предоставлены пользователями сайта, и администрация не несёт ответственности за их содержание. Просьба не заливать файлы, защищенные авторскими правами, а также файлы нелегального содержания!


    _________________

    Легко быть оптимистом, когда судьба не валит с ног тяжелыми ударами, а лишь иногда легонько шлепает по заднице.
    [Профиль] [ЛС]
    Показать сообщения:    
    Ответить на тему

    Текущее время: Сегодня, в 10:15

    Часовой пояс: GMT + 2



    Вы не можете начинать темы
    Вы не можете отвечать на сообщения
    Вы не можете редактировать свои сообщения
    Вы не можете удалять свои сообщения
    Вы не можете голосовать в опросах
    Вы не можете прикреплять файлы к сообщениям
    Вы не можете скачивать файлы