BitTorrentTracker PerecTracker.org
BitTorrentTracker PerecTracker.org
    
Регистрация  ·  Вход
 
 · 
Забыли пароль?

  • Двойная сплошная / Серии: 1-16 из 16 (Владимир Нахабцев (мл.)) [2015, Россия, Мелодрама, WEBRip]

    Ответить на тему
     
    Автор Сообщение

    rechyn

    Создавать темы 21-Ноя-2015 22:20

           

    [Цитировать]

    Двойная сплошнаяПроизводитель : Россия, Студия 2В
    Жанр: Мелодрама
    Год выпуска: 2015
    Продолжительность: 50 мин.
    Cубтитры: нет
    Режиссер: Владимир Нахабцев (мл.)
    В ролях: Евгения Добровольская, Кирилл Гребенщиков, Евгений Миллер, Анна Пескова, Антон Батырев, Наталья Заякина, Валерия Бурдужа, Валерий Афанасьев, Василиса Немцова
    Описание: Мужчинам свойственно завоевывать мир, женщинам — созидать его: вить гнездо, рожать детей, заботиться о близких. Так выглядит идеальная жена. Если у нее один муж... А если два? Она дважды идеальная жена?.. Анна – женщина, которая выбирает между счастьем семейным, бытовым, привычным и счастьем личным, женским. Работая маркетологом в известной парфюмерной компании, она использует свои командировки в качестве побега от одной семьи к другой. В её родном городе – двое детей и сильный, но немногословный муж. Во втором городе – чувство молодости, драйва, романтика, беззаботность и – муж, который младше её и богаче. И в каждой семье она так по-разному счастлива и так по-разному несчастна.
    Сэмпл
    Качество: WEBRip
    Формат: AVI
    Видео кодек: XviD
    Аудио кодек: AC3
    Видео: 720x416 (1.80:1), 25 fps, XviD build 73 ~1548 kbps avg, 0.22 bit/pixel
    Аудио: 48 kHz, AC3 Dolby Digital, 2/0 (L,R) ch, ~192.00 kbps avg

    MI

    General
    Complete name : Y:\раздачи\Двойная сплошная.2015.WEB-DLRip.RG.Russkie.serialy.&.Files-x\02.Двойная сплошная.2015.WEB-DLRip.RG.Russkie.serialy.&.Files-x.avi
    Format : AVI
    Format/Info : Audio Video Interleave
    File size : 594 MiB
    Duration : 47mn 36s
    Overall bit rate : 1 744 Kbps
    Writing application : VirtualDubMod 1.5.10.3 (build 2550/release)
    Writing library : VirtualDubMod build 2550/release
    Video
    ID : 0
    Format : MPEG-4 Visual
    Format profile : Advanced Simple@L5
    Format settings, BVOP : 1
    Format settings, QPel : No
    Format settings, GMC : No warppoints
    Format settings, Matrix : Custom
    Codec ID : XVID
    Codec ID/Hint : XviD
    Duration : 47mn 36s
    Bit rate : 1 543 Kbps
    Width : 720 pixels
    Height : 416 pixels
    Display aspect ratio : 1.731
    Frame rate : 25.000 fps
    Color space : YUV
    Chroma subsampling : 4:2:0
    Bit depth : 8 bits
    Scan type : Progressive
    Compression mode : Lossy
    Bits/(Pixel*Frame) : 0.206
    Stream size : 525 MiB (88%)
    Writing library : XviD 73
    Audio
    ID : 1
    Format : AC-3
    Format/Info : Audio Coding 3
    Mode extension : CM (complete main)
    Format settings, Endianness : Big
    Codec ID : 2000
    Duration : 47mn 36s
    Bit rate mode : Constant
    Bit rate : 192 Kbps
    Channel(s) : 2 channels
    Channel positions : Front: L R
    Sampling rate : 48.0 KHz
    Compression mode : Lossy
    Stream size : 65.4 MiB (11%)
    Alignment : Split accross interleaves
    Interleave, duration : 40 ms (1.00 video frame)
    Interleave, preload duration : 500 ms

    Скриншоты

    Скачать .torrent

    Скачать торрент-файл бесплатно и на максимальной скорости!

    Как скачивать? · Что такое торрент? · Рейтинг и ограничения

    !ВНИМАНИЕ!
    Сайт не распространяет и не хранит электронные версии произведений, а занимается лишь лишь предоставлением доступа к создаваемому пользователями каталогу ссылок на торрент-файлы, которые содержат только списки хеш-сумм, убедительная просьба с жалобами обращаться напрямую к пользователю. Файлы для обмена на трекере предоставлены пользователями сайта, и администрация не несёт ответственности за их содержание. Просьба не заливать файлы, защищенные авторскими правами, а также файлы нелегального содержания!


    _________________
    [Профиль] [ЛС]
    Показать сообщения:    
    Ответить на тему

    Текущее время: Сегодня, в 14:31

    Часовой пояс: GMT + 2



    Вы не можете начинать темы
    Вы не можете отвечать на сообщения
    Вы не можете редактировать свои сообщения
    Вы не можете удалять свои сообщения
    Вы не можете голосовать в опросах
    Вы не можете прикреплять файлы к сообщениям
    Вы не можете скачивать файлы