BitTorrentTracker PerecTracker.org
BitTorrentTracker PerecTracker.org
    
Регистрация  ·  Вход
 
 · 
Забыли пароль?

  • Зловещие мертвецы: КОЛЛЕКЦИЯ/ Evil Dead: collect ( Сэм Рэйми, Майкл Херст,Федерико Альварес) [1981,2015 , Ужасы, боевик, комедия , HD 1080р] [Rus ,Eng]+[Sub Rus , Eng]

    Ответить на тему
     
    Автор Сообщение

    Враг Нароода

    Создавать темы 21-Ноя-2015 21:00

           

    [Цитировать]

    --Эш против Зловещих мертвецов / Ash vs Evil Dead Сезон 1, Серия 1-10 из 10 ----Год выпуска: 2015
    Выпущено: США,Starz, Renaissance Pictures
    Жанр: Ужасы, боевик, комедия
    Продолжительность: 00:40:00
    Сезон:1
    Серия: 1-10
    Количество серий в сезоне: 10
    Озвучка 1: Профессиональный многоголосый - Novamedia по заказу Amedia
    Озвучка 2: Авторский одноголосый Авторский -Дмитрий Пучков- Goblin
    Озвучка 3: Профессиональный многоголосый -Jaskier Ненормативная лексика
    Озвучка 4: Профессиональный Двухголосый -Кубик в кубе Ненормативная лексика
    Озвучка 5: Профессиональный многоголосый - NewStudio Ненормативная лексика
    Озвучка 6: Профессиональный многоголосый - AlexFilm Ненормативная лексика
    Озвучка 6: Профессиональный многоголосый - Английский - Оригинал
    Субтитры: :Русские , Английские-- --Режиссер: Майкл Херст, Рик Джейкобсон, Сэм Рэйми--В ролях: Брюс Кэмпбелл, Джилл Мари Джонс, Дэна ДеЛоренцо, Люси Лоулесс, Рэй Сантьяго, Мими Роджерс, Хемки Мадера, Фил Пелетон, Дэмиен Гарви и др.--30 лет он избегал ответственности за свои поступки, упорно старался не взрослеть и не особо стремился вновь встретиться с ожившими мертвецами. Но, совершив ошибку, Эш узнает, что проказа кандарийских демонов угрожает распространиться по всей планете и ему снова приходится вступить в схватку с полчищами мертвой нечисти. Реки крови, горы трупов и, конечно, искрометный черный юмор – отличный подарок всем любителям ужасов, комедий, крови, треша и угара.----Качество :HDTVRip 1080р
    Формат: MKV
    Видео кодек: H264
    Видео: 5000Кбит/сек,1920х1080(16.9),в 25.000кадр/сек,AVC (High@L4.1)(CABAC/4 Ref Frames)
    Аудио Кодек:AC3
    Аудио #1:AC3 , 384 Kbps, 48.0 KHz, 6 ch- -Novamedia
    Аудио #2: AC3, 384 Kbps, 48.0 KHz, 6 ch - - Goblin
    Аудио #3: AC3, 384 Kbps, 48.0 KHz, 6 ch - - Jaskier
    Аудио #4: AC3, 384 Kbps, 48.0 KHz, 6 ch - - Кубик в кубе
    Аудио #5: AC3, 384 Kbps, 48.0 KHz, 6 ch - - NewStudio
    Аудио #6: AC3, 384 Kbps, 48.0 KHz, 6 ch - - AlexFilm
    Аудио #7: AC3, 384 Kbps, 48.0 KHz,6 ch - - English--

    Доп. информация:

    Звуковая дорожка сделана путем наложения чистого голоса озвучивателей на центральный канал оригинальной дорожки. Качество идентично звуковой дорожке.
    --

    MediaInfo сезона

    Общее
    Уникальный идентификатор : 183677999466600771117785362191164696634 (0x8A2F188EDAC18431ABEAA49ADCF8E83A)
    Полное имя : D:\К О М Е Д И И\Зловещие Мертвецы Коллекция\Evil_Dead_unique_collection_1981_-_2015_Rus_Eng_x264_N.B_HD_1080p\Ash_vs_Evil_Dead_2015_S01_6xRus_Eng_x264_N.B_HD_1080p\Ash_vs_Evil_Dead_2015_S01E01_6xRus_Eng_DD5.1_x264_N.B__HDTVRip_1080p.mkv
    Формат : Matroska
    Версия формата : Version 4 / Version 2
    Размер файла : 2,10 Гбайт
    Продолжительность : 39 м.
    Общий поток : 7686 Кбит/сек
    Название фильма : Ash_vs_Evil_Dead_2015_S01E01_6xRus_Eng_DD5.1_x264_N.B__HDTVRip_1080p
    Дата кодирования : UTC 2016-01-14 20:43:16
    Программа кодирования : mkvmerge v8.8.0 ('Wind at my back') 64bit
    Библиотека кодирования : libebml v1.3.3 + libmatroska v1.4.4
    Видео
    Идентификатор : 1
    Формат : AVC
    Формат/Информация : Advanced Video Codec
    Профиль формата : High@L4.1
    Параметр CABAC формата : Да
    Параметр ReFrames формата : 4 кадра
    Идентификатор кодека : V_MPEG4/ISO/AVC
    Продолжительность : 39 м.
    Битрейт : 5000 Кбит/сек
    Ширина : 1920 пикселей
    Высота : 1080 пикселей
    Соотношение сторон : 16:9
    Режим частоты кадров : Постоянный
    Частота кадров : 25,000 кадров/сек
    Цветовое пространство : YUV
    Субдискретизация насыщенности : 4:2:0
    Битовая глубина : 8 бит
    Тип развёртки : Прогрессивная
    Бит/(Пиксели*Кадры) : 0.096
    Размер потока : 1,37 Гбайт (65%)
    Заголовок : Ash vs Evil Dead 1x01
    Библиотека кодирования : x264 core 142 r2491 24e4fed
    Настройки программы : cabac=1 / ref=3 / deblock=1:1:-1 / analyse=0x3:0x133 / me=umh / subme=9 / psy=1 / psy_rd=1.00:0.00 / mixed_ref=1 / me_range=48 / chroma_me=1 / trellis=2 / 8x8dct=1 / cqm=0 / deadzone=21,11 / fast_pskip=0 / chroma_qp_offset=-2 / threads=48 / lookahead_threads=5 / sliced_threads=0 / slices=4 / nr=0 / decimate=1 / interlaced=0 / bluray_compat=0 / constrained_intra=0 / bframes=6 / b_pyramid=2 / b_adapt=2 / b_bias=0 / direct=3 / weightb=1 / open_gop=0 / weightp=2 / keyint=250 / keyint_min=22 / scenecut=40 / intra_refresh=0 / rc_lookahead=50 / rc=2pass / mbtree=1 / bitrate=5000 / ratetol=1.0 / qcomp=0.70 / qpmin=10 / qpmax=49 / qpstep=4 / cplxblur=20.0 / qblur=0.5 / vbv_maxrate=9000 / vbv_bufsize=2500 / nal_hrd=none / filler=0 / ip_ratio=1.40 / aq=1:1.00
    Язык : English
    Default : Да
    Forced : Нет
    Аудио #1
    Идентификатор : 4
    Формат : AC-3
    Формат/Информация : Audio Coding 3
    Расширение режима : CM (complete main)
    Параметр Endianness формата : Big
    Идентификатор кодека : A_AC3
    Продолжительность : 39 м.
    Вид битрейта : Постоянный
    Битрейт : 384 Кбит/сек
    Каналы : 6 каналов
    Расположение каналов : Front: L C R, Side: L R, LFE
    Частота : 48,0 КГц
    Частота кадров : 31,250 кадров/сек (1536 spf)
    Метод сжатия : С потерями
    Размер потока : 107 Мбайт (5%)
    Default : Да
    Forced : Нет
    Аудио #2
    Идентификатор : 5
    Формат : AC-3
    Формат/Информация : Audio Coding 3
    Расширение режима : CM (complete main)
    Параметр Endianness формата : Big
    Идентификатор кодека : A_AC3
    Продолжительность : 39 м.
    Вид битрейта : Постоянный
    Битрейт : 384 Кбит/сек
    Каналы : 6 каналов
    Расположение каналов : Front: L C R, Side: L R, LFE
    Частота : 48,0 КГц
    Частота кадров : 31,250 кадров/сек (1536 spf)
    Метод сжатия : С потерями
    Размер потока : 107 Мбайт (5%)
    Default : Нет
    Forced : Нет
    Аудио #3
    Идентификатор : 6
    Формат : AC-3
    Формат/Информация : Audio Coding 3
    Расширение режима : CM (complete main)
    Параметр Endianness формата : Big
    Идентификатор кодека : A_AC3
    Продолжительность : 39 м.
    Вид битрейта : Постоянный
    Битрейт : 384 Кбит/сек
    Каналы : 6 каналов
    Расположение каналов : Front: L C R, Side: L R, LFE
    Частота : 48,0 КГц
    Частота кадров : 31,250 кадров/сек (1536 spf)
    Метод сжатия : С потерями
    Размер потока : 107 Мбайт (5%)
    Default : Нет
    Forced : Нет
    Аудио #4
    Идентификатор : 7
    Формат : AC-3
    Формат/Информация : Audio Coding 3
    Расширение режима : CM (complete main)
    Параметр Endianness формата : Big
    Идентификатор кодека : A_AC3
    Продолжительность : 39 м.
    Вид битрейта : Постоянный
    Битрейт : 384 Кбит/сек
    Каналы : 6 каналов
    Расположение каналов : Front: L C R, Side: L R, LFE
    Частота : 48,0 КГц
    Частота кадров : 31,250 кадров/сек (1536 spf)
    Метод сжатия : С потерями
    Размер потока : 107 Мбайт (5%)
    Default : Нет
    Forced : Нет
    Аудио #5
    Идентификатор : 8
    Формат : AC-3
    Формат/Информация : Audio Coding 3
    Расширение режима : CM (complete main)
    Параметр Endianness формата : Big
    Идентификатор кодека : A_AC3
    Продолжительность : 39 м.
    Вид битрейта : Постоянный
    Битрейт : 384 Кбит/сек
    Каналы : 6 каналов
    Расположение каналов : Front: L C R, Side: L R, LFE
    Частота : 48,0 КГц
    Частота кадров : 31,250 кадров/сек (1536 spf)
    Метод сжатия : С потерями
    Размер потока : 107 Мбайт (5%)
    Default : Нет
    Forced : Нет
    Аудио #6
    Идентификатор : 9
    Формат : AC-3
    Формат/Информация : Audio Coding 3
    Расширение режима : CM (complete main)
    Параметр Endianness формата : Big
    Идентификатор кодека : A_AC3
    Продолжительность : 39 м.
    Вид битрейта : Постоянный
    Битрейт : 384 Кбит/сек
    Каналы : 6 каналов
    Расположение каналов : Front: L C R, Side: L R, LFE
    Частота : 48,0 КГц
    Частота кадров : 31,250 кадров/сек (1536 spf)
    Метод сжатия : С потерями
    Размер потока : 107 Мбайт (5%)
    Default : Нет
    Forced : Нет
    Аудио #7
    Идентификатор : 10
    Формат : AC-3
    Формат/Информация : Audio Coding 3
    Расширение режима : CM (complete main)
    Параметр Endianness формата : Big
    Идентификатор кодека : A_AC3
    Продолжительность : 39 м.
    Вид битрейта : Постоянный
    Битрейт : 384 Кбит/сек
    Каналы : 6 каналов
    Расположение каналов : Front: L C R, Side: L R, LFE
    Частота : 48,0 КГц
    Частота кадров : 31,250 кадров/сек (1536 spf)
    Метод сжатия : С потерями
    Размер потока : 108 Мбайт (5%)
    Default : Нет
    Forced : Нет
    Текст #1
    Идентификатор : 2
    Формат : UTF-8
    Идентификатор кодека : S_TEXT/UTF8
    Идентификатор кодека/Информация : UTF-8 Plain Text
    Продолжительность : 37 м.
    Битрейт : 57 бит/сек
    Count of elements : 393
    Размер потока : 15,7 Кбайт (0%)
    Заголовок : Amedia
    Язык : Russian
    Default : Нет
    Forced : Нет
    Текст #2
    Идентификатор : 3
    Формат : UTF-8
    Идентификатор кодека : S_TEXT/UTF8
    Идентификатор кодека/Информация : UTF-8 Plain Text
    Продолжительность : 38 м.
    Битрейт : 49 бит/сек
    Count of elements : 543
    Размер потока : 13,9 Кбайт (0%)
    Заголовок : Original
    Язык : English
    Default : Нет
    Forced : Нет
    --

    Скриншоты

    ----

    Зловещие мертвецы (Трилогия) / Evil Dead: Trilogy-981, 1987, 1992

    --Зловещие мертвецы (Трилогия) / Evil Dead: Trilogy-981, 1987, 1992----Год выпуска: 1981, 1987, 1992
    Жанр: Ужасы, фэнтези, комедия
    Выпущено: США, Renaissance Pictures, Acme Effects, 24 Hour Post, Dino De Laurentiis
    Режиссер: Сэм Рэйми
    В ролях: Брюс Кэмпбелл, Эллен Сэндвайсс, Бетси Бэйкер, Тереза Тилли, Филип А. Гиллис, Дороти Таперт, Барбара Кэри, Дэвид Хортон, Сара Берри, Дэн Хикс, Тед Рэйми, Джон Пикс, Лу Хэнкок, Эмбет Дэвидц, Иэн Эберкромби, Ричард Гроув, Тимоти Патрик Куилл, Майкл Эрл Рейд, Бриджит Фонда, Патриция Таллман, Дек Андерсон
    Продолжительность: 01:25:26, 01:24:14, 01:20:56-- --Молодые люди снимают на выходные загородный дом. Находится он в непролазной глуши, выглядит мрачно, а кругом — ни души. Аренда стоит копейки, но не потому, что он того и гляди развалится… Раньше здесь жил археолог, после которого в подвале остались различные мистические артефакты. Например, книга мертвых, предметы неизвестных магических культов и магнитофон с записью заклинания на непонятном языке. Ребята запись прослушали… С наступлением темноты им предстоит встретиться с духами, которых они разбудили!.-- Зловещие мертвецы / The Evil Dead / 1981
    Качество : BluRay (1080p)
    Формат: MKV
    Видео кодек: H264
    Видео: 18,6Мбит/сек,1920х1040(4/3),в23.976кадр/сек,AVC(High@L4.1)(CABAC/5Ref Frames)
    Аудио Кодек:AC3
    Аудио#1: Russian: 48 kHz, AC3 5.1, 384 kbps |Многоголосый закадровый, Киномания|
    Аудио#2: Russian: 48 kHz, AC3 5.1, 448 kbps |Двухголосый закадровый|
    Аудио#3: Russian: 48 kHz, AC3 5.1, 384 |Двухголосый закадровый, П. Гланц и И. Королёва|
    Аудио#4: Russian: 48 kHz, AC3 5.1, 384 kbps |Одноголосый закадровый, Д. Пучков|
    Аудио#5: Russian: 48 kHz, AC3 5.1, 384 kbps |Одноголосый закадровый, А. Гаврилов|
    Аудио#6: Russian: 48 kHz, AC3 5.1, 384 kbps |Одноголосый закадровый, А. Костюкевич|
    Аудио#7: Russian: 48 kHz, AC3 2.0, 192 kbps |Одноголосый закадровый, Л. Володарский|
    Аудио#8: Russian: 48 kHz, AC3 2.0, 192 kbps |Одноголосый закадровый, А. Дольский|
    Аудио#9: English: 48 kHz, AC3 5.1, 384 kbps
    Субтитры: Russian, English
    Зловещие мертвецы 2 / Evil Dead II / 1987
    Качество : BluRay (1080p)
    Формат: MKV
    Видео кодек: H264
    Видео: 17,4Мбит/сек,1440х1080(4/3),в23.976кадр/сек,AVC(High@L4.1)(CABAC/5Ref Frames)
    Аудио Кодек:AC3
    Аудио#1: Russian: 48 kHz, AC3 5.1, 448 kbps |Многоголосый закадровый, CP Digital|
    Аудио#2: Russian: 48 kHz, AC3 5.1, 384 kbps |Многоголосый закадровый, Киномания|
    Аудио#3: Russian: 48 kHz, AC3 5.1, 384 kbps |Двухголосый закадровый, П. Гланц и И. Королёва|
    Аудио#4: Russian: 48 kHz, AC3 5.1, 384 kbps |Одноголосый закадровый, А. Михалёв|
    Аудио#5: Russian: 48 kHz, AC3 5.1, 384 |Одноголосый закадровый, Ю. Сербин|
    Аудио#6: Russian: 48 kHz, AC3 2.0, 192 kbps |Одноголосый закадровый, А. Гаврилов|
    Аудио#7: Russian: 48 kHz, AC3 2.0, 192 kbps |Одноголосый закадровый, Зереницын/Белов|
    Аудио#8: Russian: 48 kHz, AC3 2.0, 192 kbps |Одноголосый закадровый, Неизвестный "Древний"|
    Аудио#9: Russian: 48 kHz, AC3 2.0, 192 kbps |Одноголосый закадровый, Неизвестный с немецкого|
    Аудио#10: English: 48 kHz, AC3 5.1, 384 kbps
    Аудио#11: Ukrainian: 48 kHz, AC3 2.0, 192 kbps |Многоголосый закадровый, 2+2|
    Субтитры: Russian, English
    Зловещие мертвецы 3: Армия тьмы / Army of Darkness / 1992
    Качество : BluRay (1080p)
    Формат: MKV
    Видео кодек: H264
    Видео: 12,6Мбит/сек,1916х1080(4/3),в23.976кадр/сек,AVC(High@L4.1)(CABAC/5Ref Frames)
    Аудио Кодек:AC3
    Аудио#1: Russian: 48 kHz, AC3 5.1, 384 kbps |Двухголосый закадровый, П. Гланц и И. Королёва|
    Аудио#2: Russian: 48 kHz, AC3 5.1, 384 kbps |Многоголосый закадровый, Киномания|
    Аудио#3: Russian: 48 kHz, AC3 5.1, 384 kbps |Одноголосый закадровый, А. Михалёв|
    Аудио#4: Russian: 48 kHz, AC3 5.1, 384 kbps |Одноголосый закадровый, С. Визгунов|
    Аудио#5:Russian: 48 kHz, AC3 5.1, 384 kbps |Одноголосый закадровый, Е. Гранкин|
    Аудио#6: Russian: 48 kHz, AC3 2.0, 192 kbps |Одноголосый закадровый, П. Прямостанов|
    Аудио#7:English: 48 kHz, AC3 5.1, 384 kbps
    Субтитры: Russian (Reanimator1911), Russian (Киномания), English--

    MediaInfo

    Общее
    Уникальный идентификатор : 247440762111865659841463353073770094952 (0xBA275B79690909CE9751D7EF7E0AE168)
    Полное имя : D:\К О М Е Д И И\Зловещие Мертвецы Коллекция\Evil_Dead_unique_collection_1981_-_2015_Rus_Eng_x264_N.B_HD_1080p\The_Evil_Dead_1981_8xRus_Eng_x264_N.B_BluRay_1080p\The_Evil.Dead_1981_8xRus_Eng_x264_N.B_BluRay_1080p.mkv
    Формат : Matroska
    Версия формата : Version 4 / Version 2
    Размер файла : 12,3 Гбайт
    Продолжительность : 1 ч. 25 м.
    Общий поток : 20,6 Мбит/сек
    Название фильма : The_Evil.Dead_1981_8xRus_Eng_x264_N.B_BluRay_1080p
    Дата кодирования : UTC 2016-01-15 09:38:05
    Программа кодирования : mkvmerge v8.8.0 ('Wind at my back') 64bit
    Библиотека кодирования : libebml v1.3.3 + libmatroska v1.4.4
    Видео
    Идентификатор : 1
    Формат : AVC
    Формат/Информация : Advanced Video Codec
    Профиль формата : High@L4.1
    Параметр CABAC формата : Да
    Параметр ReFrames формата : 5 кадров
    Идентификатор кодека : V_MPEG4/ISO/AVC
    Продолжительность : 1 ч. 25 м.
    Битрейт : 17,4 Мбит/сек
    Ширина : 1440 пикселей
    Высота : 1080 пикселей
    Соотношение сторон : 4:3
    Режим частоты кадров : Постоянный
    Частота кадров : 23,976 (24000/1001) кадра/сек
    Цветовое пространство : YUV
    Субдискретизация насыщенности : 4:2:0
    Битовая глубина : 8 бит
    Тип развёртки : Прогрессивная
    Бит/(Пиксели*Кадры) : 0.467
    Размер потока : 10,4 Гбайт (85%)
    Заголовок : Release for HDCLUB
    Библиотека кодирования : x264 core 142 r2431+42 c69a006 tMod [8-bit@4:2:0 X86_64]
    Настройки программы : cabac=1 / ref=5 / deblock=1:-2:-2 / analyse=0x3:0x133 / me=umh / subme=11 / psy=1 / fade_compensate=0.00 / psy_rd=1.00:0.00 / mixed_ref=1 / me_range=32 / chroma_me=1 / trellis=2 / 8x8dct=1 / cqm=0 / deadzone=21,11 / fast_pskip=1 / chroma_qp_offset=-2 / threads=12 / lookahead_threads=2 / sliced_threads=0 / nr=0 / decimate=1 / interlaced=0 / bluray_compat=0 / constrained_intra=0 / fgo=0 / bframes=9 / b_pyramid=2 / b_adapt=2 / b_bias=0 / direct=1 / weightb=1 / open_gop=0 / weightp=2 / keyint=250 / keyint_min=23 / scenecut=40 / intra_refresh=0 / rc_lookahead=120 / rc=crf / mbtree=1 / crf=19.5000 / qcomp=0.75 / qpmin=0:0:0 / qpmax=69:69:69 / qpstep=4 / vbv_maxrate=62500 / vbv_bufsize=78125 / crf_max=0.0 / nal_hrd=none / filler=0 / ip_ratio=1.10 / aq=1:0.70 / aq-sensitivity=10.00 / aq-factor=1.00:1.00:1.00 / aq2=0 / aq3=0
    Язык : English
    Default : Да
    Forced : Нет
    Цветовой диапазон : Limited
    Основные цвета : BT.709
    Характеристики трансфера : BT.709
    Коэффициенты матрицы : BT.709
    Аудио #1
    Идентификатор : 5
    Формат : AC-3
    Формат/Информация : Audio Coding 3
    Расширение режима : CM (complete main)
    Параметр Endianness формата : Big
    Идентификатор кодека : A_AC3
    Продолжительность : 1 ч. 25 м.
    Вид битрейта : Постоянный
    Битрейт : 384 Кбит/сек
    Каналы : 6 каналов
    Расположение каналов : Front: L C R, Side: L R, LFE
    Частота : 48,0 КГц
    Частота кадров : 31,250 кадров/сек (1536 spf)
    Метод сжатия : С потерями
    Размер потока : 235 Мбайт (2%)
    Заголовок : MVO, Киномания
    Язык : Russian
    Default : Да
    Forced : Нет
    Аудио #2
    Идентификатор : 6
    Формат : AC-3
    Формат/Информация : Audio Coding 3
    Расширение режима : CM (complete main)
    Параметр Endianness формата : Big
    Идентификатор кодека : A_AC3
    Продолжительность : 1 ч. 25 м.
    Вид битрейта : Постоянный
    Битрейт : 448 Кбит/сек
    Каналы : 6 каналов
    Расположение каналов : Front: L C R, Side: L R, LFE
    Частота : 48,0 КГц
    Частота кадров : 31,250 кадров/сек (1536 spf)
    Метод сжатия : С потерями
    Размер потока : 274 Мбайт (2%)
    Заголовок : DVO
    Язык : Russian
    Default : Нет
    Forced : Нет
    Аудио #3
    Идентификатор : 7
    Формат : AC-3
    Формат/Информация : Audio Coding 3
    Профиль формата : Dolby Digital
    Расширение режима : CM (complete main)
    Параметр Endianness формата : Big
    Идентификатор кодека : A_AC3
    Продолжительность : 1 ч. 25 м.
    Вид битрейта : Постоянный
    Битрейт : 192 Кбит/сек
    Каналы : 2 канала
    Расположение каналов : Front: L R
    Частота : 48,0 КГц
    Частота кадров : 31,250 кадров/сек (1536 spf)
    Метод сжатия : С потерями
    Размер потока : 117 Мбайт (1%)
    Заголовок : VO, Володарский
    Язык : Russian
    Default : Нет
    Forced : Нет
    Аудио #4
    Идентификатор : 8
    Формат : AC-3
    Формат/Информация : Audio Coding 3
    Профиль формата : Dolby Digital
    Расширение режима : CM (complete main)
    Параметр Endianness формата : Big
    Идентификатор кодека : A_AC3
    Продолжительность : 1 ч. 25 м.
    Вид битрейта : Постоянный
    Битрейт : 192 Кбит/сек
    Каналы : 2 канала
    Расположение каналов : Front: L R
    Частота : 48,0 КГц
    Частота кадров : 31,250 кадров/сек (1536 spf)
    Метод сжатия : С потерями
    Размер потока : 117 Мбайт (1%)
    Заголовок : VO, Дольский
    Язык : Russian
    Default : Нет
    Forced : Нет
    Аудио #5
    Идентификатор : 9
    Формат : AC-3
    Формат/Информация : Audio Coding 3
    Расширение режима : CM (complete main)
    Параметр Endianness формата : Big
    Идентификатор кодека : A_AC3
    Продолжительность : 1 ч. 25 м.
    Вид битрейта : Постоянный
    Битрейт : 384 Кбит/сек
    Каналы : 6 каналов
    Расположение каналов : Front: L C R, Side: L R, LFE
    Частота : 48,0 КГц
    Частота кадров : 31,250 кадров/сек (1536 spf)
    Метод сжатия : С потерями
    Размер потока : 235 Мбайт (2%)
    Default : Нет
    Forced : Нет
    Аудио #6
    Идентификатор : 10
    Формат : AC-3
    Формат/Информация : Audio Coding 3
    Расширение режима : CM (complete main)
    Параметр Endianness формата : Big
    Идентификатор кодека : A_AC3
    Продолжительность : 1 ч. 25 м.
    Вид битрейта : Постоянный
    Битрейт : 384 Кбит/сек
    Каналы : 6 каналов
    Расположение каналов : Front: L C R, Side: L R, LFE
    Частота : 48,0 КГц
    Частота кадров : 31,250 кадров/сек (1536 spf)
    Метод сжатия : С потерями
    Размер потока : 235 Мбайт (2%)
    Default : Нет
    Forced : Нет
    Аудио #7
    Идентификатор : 11
    Формат : AC-3
    Формат/Информация : Audio Coding 3
    Расширение режима : CM (complete main)
    Параметр Endianness формата : Big
    Идентификатор кодека : A_AC3
    Продолжительность : 1 ч. 25 м.
    Вид битрейта : Постоянный
    Битрейт : 384 Кбит/сек
    Каналы : 6 каналов
    Расположение каналов : Front: L C R, Side: L R, LFE
    Частота : 48,0 КГц
    Частота кадров : 31,250 кадров/сек (1536 spf)
    Метод сжатия : С потерями
    Размер потока : 235 Мбайт (2%)
    Default : Нет
    Forced : Нет
    Аудио #8
    Идентификатор : 12
    Формат : AC-3
    Формат/Информация : Audio Coding 3
    Расширение режима : CM (complete main)
    Параметр Endianness формата : Big
    Идентификатор кодека : A_AC3
    Продолжительность : 1 ч. 25 м.
    Вид битрейта : Постоянный
    Битрейт : 384 Кбит/сек
    Каналы : 6 каналов
    Расположение каналов : Front: L C R, Side: L R, LFE
    Частота : 48,0 КГц
    Частота кадров : 31,250 кадров/сек (1536 spf)
    Метод сжатия : С потерями
    Размер потока : 235 Мбайт (2%)
    Default : Нет
    Forced : Нет
    Аудио #9
    Идентификатор : 13
    Формат : AC-3
    Формат/Информация : Audio Coding 3
    Расширение режима : CM (complete main)
    Параметр Endianness формата : Big
    Идентификатор кодека : A_AC3
    Продолжительность : 1 ч. 25 м.
    Вид битрейта : Постоянный
    Битрейт : 384 Кбит/сек
    Каналы : 6 каналов
    Расположение каналов : Front: L C R, Side: L R, LFE
    Частота : 48,0 КГц
    Частота кадров : 31,250 кадров/сек (1536 spf)
    Метод сжатия : С потерями
    Размер потока : 235 Мбайт (2%)
    Default : Нет
    Forced : Нет
    Текст #1
    Идентификатор : 2
    Формат : UTF-8
    Идентификатор кодека : S_TEXT/UTF8
    Идентификатор кодека/Информация : UTF-8 Plain Text
    Продолжительность : 1 ч. 24 м.
    Битрейт : 26 бит/сек
    Count of elements : 351
    Размер потока : 16,5 Кбайт (0%)
    Заголовок : Пучков
    Язык : Russian
    Default : Нет
    Forced : Нет
    Текст #2
    Идентификатор : 3
    Формат : UTF-8
    Идентификатор кодека : S_TEXT/UTF8
    Идентификатор кодека/Информация : UTF-8 Plain Text
    Продолжительность : 1 ч. 20 м.
    Битрейт : 20 бит/сек
    Count of elements : 440
    Размер потока : 11,9 Кбайт (0%)
    Язык : English
    Default : Нет
    Forced : Нет
    Текст #3
    Идентификатор : 4
    Формат : UTF-8
    Идентификатор кодека : S_TEXT/UTF8
    Идентификатор кодека/Информация : UTF-8 Plain Text
    Продолжительность : 1 ч. 25 м.
    Битрейт : 24 бит/сек
    Count of elements : 648
    Размер потока : 15,5 Кбайт (0%)
    Язык : English
    Default : Нет
    Forced : Нет
    Меню
    00:00:00.000 : en:Chapter 1
    00:03:32.670 : en:Chapter 2
    00:07:24.610 : en:Chapter 3
    00:12:36.922 : en:Chapter 4
    00:16:17.935 : en:Chapter 5
    00:19:20.993 : en:Chapter 6
    00:23:13.141 : en:Chapter 7
    00:27:03.788 : en:Chapter 8
    00:29:34.606 : en:Chapter 9
    00:34:25.688 : en:Chapter 10
    00:38:21.549 : en:Chapter 11
    00:41:30.237 : en:Chapter 12
    00:43:27.438 : en:Chapter 13
    00:46:39.588 : en:Chapter 14
    00:49:37.557 : en:Chapter 15
    00:54:35.313 : en:Chapter 16
    00:57:33.450 : en:Chapter 17
    01:00:43.431 : en:Chapter 18
    01:06:45.459 : en:Chapter 19
    01:08:54.505 : en:Chapter 20
    01:11:56.437 : en:Chapter 21
    01:15:29.983 : en:Chapter 22
    01:19:06.324 : en:Chapter 23
    01:21:46.943 : en:Chapter 24
    --

    Скриншоты

    ----

    Зловещие мертвецы: Черная книга /Evil Dead -2013

    --Зловещие мертвецы: Черная книга /Evil Dead -2013 ----Год выпуска: 2013
    Жанр: Ужасы, ремейк
    Выпущено: США, FilmDistrict, Ghost House Pictures, TriStar Pictures
    Режиссер: Федерико Альварес
    В ролях: Джейн Леви, Шайло Фернандес, Лу Тейлор Пуччи, Джессика Лукас, Элизабет Блэкмор, Феникс Коннолли, Джим МакЛарти, Сиан Дэвис, Стефен Баттерворф, Карл Виллетц
    Продолжительность: 01:31:18-- --Мать Дэвида и Мии очень тяжело умирала в психиатрической больнице и рядом с нею находилась только Миа, тогда ещё подросток. Прошло уже несколько лет, а она никак не могла забыть кошмарные предсмертные дни их буйно-помешанной матери и, с возрастом, Миа "подсела" на наркотики. Но после передозировки, когда врачи едва спасли её, она решает прекратить принимать наркотики. Среди её друзей была медсестра, решившая, что сумеет помочь ей без стационара. Для этого они: Миа, медсестра, Дэвид, его невеста и их лучший друг, - отправляются в старый, давно заброшенный дом Мии и Дэвида, находившийся в лесу. Добравшись они увидели, что дверь в дом была взломана, а в подвале они обнаружили атрибуты, используемые в чёрной магии и старинную книгу, которую их крайне заинтересовавшийся друг, начал немедленно изучать. Сумев проявить скрытые слова, он прочитал их вслух, чем невольно вызвал жуткого демона...--Качество :BDRip 1080p
    Формат: MKV
    Видео кодек: H264
    Видео: 17,5Мбит/сек,1920х800(2/40),в23.976кадр/сек,AVC(High@L4.1)(CABAC/5Ref Frames)
    Аудио Кодек:AC3
    Аудио#1: Russian:AC3 , 448 Kbps, 48.0 KHz, 6 ch- -Русский - [ Дубляж]
    Аудио#2: Russian: 48 kHz, AC3 5.1, 448 |Одноголосый закадровый, А.Карповский
    Аудио#13: Ukrainian:AC3, 448 Kbps, 48.0 KHz, 6 ch - - Многоголосый закадровый, Омикрон
    Аудио #4: AC3, 448 Kbps, 48.0 KHz, 6 ch - - Английский - Оригинал
    Субтитры: Русские, английские--

    MediaInfo

    Общее
    Уникальный идентификатор : 234229477530791191661270661674698991676 (0xB036F4DACA477D77B40BCC3C4452E83C)
    Полное имя : D:\К О М Е Д И И\Зловещие Мертвецы Коллекция\Evil_Dead_unique_collection_1981_-_2015_Rus_Eng_x264_N.B_HD_1080p\Evil_Dead_2013_2xRus_Ukr_Eng_x264_N.B_BDRip_1080p\Evil_Dead_2013_2xRus_Ukr_Eng_x264_N.B_BDRip_1080p.mkv
    Формат : Matroska
    Версия формата : Version 4 / Version 2
    Размер файла : 12,1 Гбайт
    Продолжительность : 1 ч. 31 м.
    Общий поток : 19,0 Мбит/сек
    Название фильма : Evil_Dead_2013_2xRus_Ukr_Eng_x264_N.B_BDRip_1080p
    Дата кодирования : UTC 2016-01-15 09:04:39
    Программа кодирования : mkvmerge v8.8.0 ('Wind at my back') 64bit
    Библиотека кодирования : libebml v1.3.3 + libmatroska v1.4.4
    Видео
    Идентификатор : 1
    Формат : AVC
    Формат/Информация : Advanced Video Codec
    Профиль формата : High@L4.1
    Параметр CABAC формата : Да
    Параметр ReFrames формата : 5 кадров
    Идентификатор кодека : V_MPEG4/ISO/AVC
    Продолжительность : 1 ч. 31 м.
    Битрейт : 17,5 Мбит/сек
    Ширина : 1920 пикселей
    Высота : 800 пикселей
    Соотношение сторон : 2,40:1
    Режим частоты кадров : Постоянный
    Частота кадров : 23,976 (24000/1001) кадра/сек
    Цветовое пространство : YUV
    Субдискретизация насыщенности : 4:2:0
    Битовая глубина : 8 бит
    Тип развёртки : Прогрессивная
    Бит/(Пиксели*Кадры) : 0.475
    Размер потока : 11,0 Гбайт (91%)
    Библиотека кодирования : x264 core 146 r2538 121396c
    Настройки программы : cabac=1 / ref=5 / deblock=1:-3:-3 / analyse=0x3:0x113 / me=umh / subme=11 / psy=1 / psy_rd=1.00:0.10 / mixed_ref=0 / me_range=24 / chroma_me=1 / trellis=2 / 8x8dct=1 / cqm=0 / deadzone=21,11 / fast_pskip=1 / chroma_qp_offset=-3 / threads=14 / lookahead_threads=3 / sliced_threads=0 / slices=4 / nr=0 / decimate=1 / interlaced=0 / bluray_compat=0 / constrained_intra=0 / bframes=12 / b_pyramid=2 / b_adapt=2 / b_bias=0 / direct=3 / weightb=1 / open_gop=0 / weightp=2 / keyint=240 / keyint_min=23 / scenecut=40 / intra_refresh=0 / rc_lookahead=80 / rc=abr / mbtree=0 / bitrate=17500 / ratetol=1.0 / qcomp=1.00 / qpmin=0 / qpmax=69 / qpstep=4 / vbv_maxrate=50000 / vbv_bufsize=50000 / nal_hrd=none / filler=0 / ip_ratio=1.40 / pb_ratio=1.30 / aq=2:0.90
    Язык : English
    Default : Да
    Forced : Нет
    Аудио #1
    Идентификатор : 4
    Формат : AC-3
    Формат/Информация : Audio Coding 3
    Расширение режима : CM (complete main)
    Параметр Endianness формата : Big
    Идентификатор кодека : A_AC3
    Продолжительность : 1 ч. 31 м.
    Вид битрейта : Постоянный
    Битрейт : 448 Кбит/сек
    Каналы : 6 каналов
    Расположение каналов : Front: L C R, Side: L R, LFE
    Частота : 48,0 КГц
    Частота кадров : 31,250 кадров/сек (1536 spf)
    Метод сжатия : С потерями
    Размер потока : 293 Мбайт (2%)
    Default : Да
    Forced : Нет
    Аудио #2
    Идентификатор : 5
    Формат : AC-3
    Формат/Информация : Audio Coding 3
    Расширение режима : CM (complete main)
    Параметр Endianness формата : Big
    Идентификатор кодека : A_AC3
    Продолжительность : 1 ч. 31 м.
    Вид битрейта : Постоянный
    Битрейт : 448 Кбит/сек
    Каналы : 6 каналов
    Расположение каналов : Front: L C R, Side: L R, LFE
    Частота : 48,0 КГц
    Частота кадров : 31,250 кадров/сек (1536 spf)
    Метод сжатия : С потерями
    Размер потока : 293 Мбайт (2%)
    Default : Нет
    Forced : Нет
    Аудио #3
    Идентификатор : 6
    Формат : AC-3
    Формат/Информация : Audio Coding 3
    Расширение режима : CM (complete main)
    Параметр Endianness формата : Big
    Идентификатор кодека : A_AC3
    Продолжительность : 1 ч. 31 м.
    Вид битрейта : Постоянный
    Битрейт : 448 Кбит/сек
    Каналы : 6 каналов
    Расположение каналов : Front: L C R, Side: L R, LFE
    Частота : 48,0 КГц
    Частота кадров : 31,250 кадров/сек (1536 spf)
    Метод сжатия : С потерями
    Размер потока : 293 Мбайт (2%)
    Default : Нет
    Forced : Нет
    Аудио #4
    Идентификатор : 7
    Формат : AC-3
    Формат/Информация : Audio Coding 3
    Расширение режима : CM (complete main)
    Параметр Endianness формата : Big
    Идентификатор кодека : A_AC3
    Продолжительность : 1 ч. 31 м.
    Вид битрейта : Постоянный
    Битрейт : 448 Кбит/сек
    Каналы : 6 каналов
    Расположение каналов : Front: L C R, Side: L R, LFE
    Частота : 48,0 КГц
    Частота кадров : 31,250 кадров/сек (1536 spf)
    Метод сжатия : С потерями
    Размер потока : 293 Мбайт (2%)
    Default : Нет
    Forced : Нет
    Текст #1
    Идентификатор : 2
    Формат : UTF-8
    Идентификатор кодека : S_TEXT/UTF8
    Идентификатор кодека/Информация : UTF-8 Plain Text
    Продолжительность : 1 ч. 29 м.
    Битрейт : 42 бит/сек
    Count of elements : 606
    Размер потока : 27,4 Кбайт (0%)
    Заголовок : full BD CEE
    Язык : Russian
    Default : Нет
    Forced : Нет
    Текст #2
    Идентификатор : 3
    Формат : UTF-8
    Идентификатор кодека : S_TEXT/UTF8
    Идентификатор кодека/Информация : UTF-8 Plain Text
    Продолжительность : 1 ч. 29 м.
    Битрейт : 25 бит/сек
    Count of elements : 664
    Размер потока : 16,5 Кбайт (0%)
    Заголовок : full
    Язык : English
    Default : Нет
    Forced : Нет
    Меню
    00:00:00.000 : en:00:00:00.000
    00:05:10.310 : en:00:05:10.310
    00:09:46.085 : en:00:09:46.085
    00:14:24.030 : en:00:14:24.030
    00:18:34.030 : en:00:18:34.030
    00:23:14.310 : en:00:23:14.310
    00:30:38.045 : en:00:30:38.045
    00:35:34.799 : en:00:35:34.799
    00:40:36.476 : en:00:40:36.476
    00:49:43.480 : en:00:49:43.480
    00:55:24.238 : en:00:55:24.238
    01:01:35.191 : en:01:01:35.191
    01:08:35.778 : en:01:08:35.778
    01:14:05.983 : en:01:14:05.983
    01:17:24.974 : en:01:17:24.974
    01:20:36.248 : en:01:20:36.248
    --

    Скриншоты

    ----
    --

    Как закачать отдельный файл

    1. Открыть торрент
    2. Снять галки с тех файлов торрента, которые мы не хотим закачивать. Оставляем только на нужных нам файлах (файле).
    3. Нажать О.К.
    В клиенте utorrent
    Инструкция
    1) Открыть торрент

    2) Снять галки с тех файлов торрента, которые мы не хотим закачивать:
    * либо вручную, снимая с каждого файла галку( скрин №1)
    * либо, нажав кнопку "Снять метки (Select None)", сняв сразу со всех файлов(скрин №2)
    №1

    №2

    Оставляем только на нужных нам файлах (файле).

    3)Нажать О.К
    ------Внимание!!! 15.01. 2016. РАЗДАЧА ОБНОВЛЕНА. ОБНОВИТЕ ТОРЕНТ ФАЙЛ.ПРИЯТНОГО ПРОСМОТРА . --Релиз от: Nikolai.Baranov & PIRATIYA --------
    Скачать .torrent

    Скачать торрент-файл бесплатно и на максимальной скорости!

    Как скачивать? · Что такое торрент? · Рейтинг и ограничения

    !ВНИМАНИЕ!
    Сайт не распространяет и не хранит электронные версии произведений, а занимается лишь лишь предоставлением доступа к создаваемому пользователями каталогу ссылок на торрент-файлы, которые содержат только списки хеш-сумм, убедительная просьба с жалобами обращаться напрямую к пользователю. Файлы для обмена на трекере предоставлены пользователями сайта, и администрация не несёт ответственности за их содержание. Просьба не заливать файлы, защищенные авторскими правами, а также файлы нелегального содержания!


    _________________

    Легко быть оптимистом, когда судьба не валит с ног тяжелыми ударами, а лишь иногда легонько шлепает по заднице.
    [Профиль] [ЛС]
    Показать сообщения:    
    Ответить на тему

    Текущее время: Сегодня, в 08:13

    Часовой пояс: GMT + 2



    Вы не можете начинать темы
    Вы не можете отвечать на сообщения
    Вы не можете редактировать свои сообщения
    Вы не можете удалять свои сообщения
    Вы не можете голосовать в опросах
    Вы не можете прикреплять файлы к сообщениям
    Вы не можете скачивать файлы