BitTorrentTracker PerecTracker.org
BitTorrentTracker PerecTracker.org
    
Регистрация  ·  Вход
 
 · 
Забыли пароль?

  • Людмила Гурченко / Серии: 1-16 из 16 (Сергей Алдонин, Александр Имакин) [2015, Россия, Биография, HDTVRip]

    Ответить на тему
     
    Автор Сообщение

    rechyn

    Создавать темы 20-Ноя-2015 18:29

           

    [Цитировать]

    Людмила ГурченкоПроизводитель : Россия, Кинокомпания INK Film
    Жанр: Биография
    Год выпуска: 2015
    Продолжительность: 50 мин.
    Cубтитры: нет
    Режиссер: Сергей Алдонин, Александр Имакин
    В ролях: Юлия Пересильд, Николай Добрынин, Надежда Михалкова, Николай Расторгуев, Семён Шкаликов, Татьяна Лютаева, Михаил Химичев, Екатерина Климова, Евгений Миллер, Пётр Красилов, Андрей Леонов, Ольга Науменко, Василий Мищенко, Александр Тютин, Карэн Бадалов, Ольга Тумайкина, Илья Исаев, Юрий Нифонтов, Олег Чернов, Александра Бортич, Юльен Балмусов, Рамиля Искандер, Тамара Сёмина, Светлана Осадченко, Артём Михалков, Евгения Хомжукова, Ольга (Лёля) Баранова, Александр Хованский (II), Андрей Гусев, Маргарита Шилова, Георгий Лежава, Георгий Дронов, Зоя Буряк, Тимур Орагвелидзе, Станислав Беляев, Сергей Алдонин
    Описание: Фильм о жизни и судьбе великой актрисы Людмилы Гурченко по мотивам ее автобиографических книг: «Мое взрослое детство» и «Аплодисменты! Аплодисменты».Телесериал охватывает почти 50-летний период жизни актрисы от рождения в 1935 году и до начала 80-х годов - долгожданного момента наивысшего признания ее таланта и всенародной славы.
    Сэмпл
    Качество: HDTVRip
    Формат: AVI
    Видео кодек: XviD
    Аудио кодек: AC3
    Видео: 720x400 (1.80:1), 25 fps, XviD build 73 ~1548 kbps avg, 0.22 bit/pixel
    Аудио: 48 kHz, AC3 Dolby Digital, 2/0 (L,R) ch, ~192.00 kbps avg

    MI

    General
    Complete name : Y:\раздачи\Людмила Гурченко.2015.HDTVRip.RG.Russkie.serialy.&.Files-x\01.Людмила Гурченко.2015.HDTVRip.RG.Russkie.serialy.&.Files-x.avi
    Format : AVI
    Format/Info : Audio Video Interleave
    File size : 548 MiB
    Duration : 43mn 5s
    Overall bit rate : 1 777 Kbps
    Writing application : VirtualDubMod 1.5.10.3 | www.virtualdub-fr.org || (build 2550/release)
    Writing library : VirtualDubMod build 2550/release
    Video
    ID : 0
    Format : MPEG-4 Visual
    Format profile : Advanced Simple@L5
    Format settings, BVOP : 1
    Format settings, QPel : No
    Format settings, GMC : No warppoints
    Format settings, Matrix : Custom
    Codec ID : XVID
    Codec ID/Hint : XviD
    Duration : 43mn 5s
    Bit rate : 1 575 Kbps
    Width : 720 pixels
    Height : 400 pixels
    Display aspect ratio : 16:9
    Frame rate : 25.000 fps
    Color space : YUV
    Chroma subsampling : 4:2:0
    Bit depth : 8 bits
    Scan type : Progressive
    Compression mode : Lossy
    Bits/(Pixel*Frame) : 0.219
    Stream size : 486 MiB (89%)
    Writing library : XviD 73
    Audio
    ID : 1
    Format : AC-3
    Format/Info : Audio Coding 3
    Mode extension : CM (complete main)
    Format settings, Endianness : Big
    Codec ID : 2000
    Duration : 43mn 5s
    Bit rate mode : Constant
    Bit rate : 192 Kbps
    Channel(s) : 2 channels
    Channel positions : Front: L R
    Sampling rate : 48.0 KHz
    Compression mode : Lossy
    Stream size : 59.2 MiB (11%)
    Alignment : Split accross interleaves
    Interleave, duration : 40 ms (1.00 video frame)
    Interleave, preload duratio : 500 ms

    Скриншоты

    Скачать .torrent

    Скачать торрент-файл бесплатно и на максимальной скорости!

    Как скачивать? · Что такое торрент? · Рейтинг и ограничения

    !ВНИМАНИЕ!
    Сайт не распространяет и не хранит электронные версии произведений, а занимается лишь лишь предоставлением доступа к создаваемому пользователями каталогу ссылок на торрент-файлы, которые содержат только списки хеш-сумм, убедительная просьба с жалобами обращаться напрямую к пользователю. Файлы для обмена на трекере предоставлены пользователями сайта, и администрация не несёт ответственности за их содержание. Просьба не заливать файлы, защищенные авторскими правами, а также файлы нелегального содержания!


    _________________
    [Профиль] [ЛС]
    Показать сообщения:    
    Ответить на тему

    Текущее время: Сегодня, в 06:09

    Часовой пояс: GMT + 2



    Вы не можете начинать темы
    Вы не можете отвечать на сообщения
    Вы не можете редактировать свои сообщения
    Вы не можете удалять свои сообщения
    Вы не можете голосовать в опросах
    Вы не можете прикреплять файлы к сообщениям
    Вы не можете скачивать файлы