BitTorrentTracker PerecTracker.org
BitTorrentTracker PerecTracker.org
    
Регистрация  ·  Вход
 
 · 
Забыли пароль?

  • Высокие ставки / Серии: 1-24 из 24 (Богдан Дробязко) [2015, Россия, Криминальный фильм, HDTVRip]

    Ответить на тему
     
    Автор Сообщение

    rechyn

    Создавать темы 20-Ноя-2015 18:20

           

    [Цитировать]

    Высокие ставки--Год выпуска: 2015
    Производитель : Россия, Триикс Медиа
    Жанр: Криминальный фильм
    Продолжительность: 50 мин.
    Cубтитры: нет-Режиссер: Богдан Дробязко-В ролях: Алексей Нилов, Сергей Губанов, Максим Дахненко, Валентин Кузнецов (III), Нина Петровская, Екатерина Рокотова, Андрей Терентьев, Олег Метелев, Роман Павлушев, Александр Дергапутский, Мария Жиганова, Екатерина Полякова, Дмитрий Гудим, Андрей Чуманов, Артем Анчуков, Андрей Никитинских, Сергей Козырев, Александр Кратиров, Александр Кошкарев, Артем Хвостеев, Валерий Кувакин, Михаил Николаев, Алексей Осипов (IV), Владимир Роганов, Галина Сидорова, Антон Успенский-Описание: В Санкт-Петербурге совершается покушение на известного криминального авторитета, владельца подпольной сети казино - Юрия Сергеева. В происходящее неожиданно вмешивается случайный прохожий, который дает киллеру отпор. Преступник убит, а прохожий, которым оказался тридцатилетний Кирилл Борзов, недавно приехавший в город из провинции, получает от Сергеева предложение работать в его службе безопасности. Так Борзов попадает в мир азарта и порока. Каждый день на глазах главного героя разыгрываются настоящие драмы из жизни игроков казино и его обслуги. Кто-то проигрывает целое состояние. Кто-то выигрывает крупную сумму, но не успевает ею распорядиться, как становится жертвой грабителей. Казино осаждают многочисленные аферисты, мошенники и проститутки. На казино то и дело наезжают «коллеги» авторитета Сергеева, стремясь отжать выгодный бизнес. В самом большом зале казино, расположенном в центре города, играют «сливки общества», высокопоставленные чиновники и крупные городские бандиты. Лучшие полицейские города бьются между собой за право крышевать это заведение…-Сэмпл-Качество: HDTVRip
    Формат: AVI
    Видео кодек: XviD
    Аудио кодек: AC3
    Видео: 720x400 (1.80:1), 25 fps, XviD build 73 ~1548 kbps avg, 0.22 bit/pixel
    Аудио: 48 kHz, AC3 Dolby Digital, 2/0 (L,R) ch, ~192.00 kbps avg

    MI

    General
    Complete name : Y:\раздачи\Vysokie.stavky.2015.HDTVRip.Files-x\06.Vysokie.stavky.2015.HDTVRip.Files-x.avi
    Format : AVI
    Format/Info : Audio Video Interleave
    File size : 577 MiB
    Duration : 45mn 45s
    Overall bit rate : 1 762 Kbps
    Writing application : VirtualDubMod 1.5.10.3 | www.virtualdub-fr.org || (build 2550/release)
    Writing library : VirtualDubMod build 2550/release
    Video
    ID : 0
    Format : MPEG-4 Visual
    Format profile : Advanced Simple@L5
    Format settings, BVOP : 1
    Format settings, QPel : No
    Format settings, GMC : No warppoints
    Format settings, Matrix : Custom
    Codec ID : XVID
    Codec ID/Hint : XviD
    Duration : 45mn 45s
    Bit rate : 1 560 Kbps
    Width : 720 pixels
    Height : 400 pixels
    Display aspect ratio : 16:9
    Frame rate : 25.000 fps
    Color space : YUV
    Chroma subsampling : 4:2:0
    Bit depth : 8 bits
    Scan type : Progressive
    Compression mode : Lossy
    Bits/(Pixel*Frame) : 0.217
    Stream size : 511 MiB (89%)
    Writing library : XviD 73
    Audio
    ID : 1
    Format : AC-3
    Format/Info : Audio Coding 3
    Mode extension : CM (complete main)
    Format settings, Endianness : Big
    Codec ID : 2000
    Duration : 45mn 45s
    Bit rate mode : Constant
    Bit rate : 192 Kbps
    Channel(s) : 2 channels
    Channel positions : Front: L R
    Sampling rate : 48.0 KHz
    Compression mode : Lossy
    Stream size : 62.8 MiB (11%)
    Alignment : Split accross interleaves
    Interleave, duration : 40 ms (1.00 video frame)
    Interleave, preload duratio : 500 ms

    Скриншоты

    Скачать .torrent

    Скачать торрент-файл бесплатно и на максимальной скорости!

    Как скачивать? · Что такое торрент? · Рейтинг и ограничения

    !ВНИМАНИЕ!
    Сайт не распространяет и не хранит электронные версии произведений, а занимается лишь лишь предоставлением доступа к создаваемому пользователями каталогу ссылок на торрент-файлы, которые содержат только списки хеш-сумм, убедительная просьба с жалобами обращаться напрямую к пользователю. Файлы для обмена на трекере предоставлены пользователями сайта, и администрация не несёт ответственности за их содержание. Просьба не заливать файлы, защищенные авторскими правами, а также файлы нелегального содержания!


    _________________
    [Профиль] [ЛС]
    Показать сообщения:    
    Ответить на тему

    Текущее время: Сегодня, в 18:36

    Часовой пояс: GMT + 2



    Вы не можете начинать темы
    Вы не можете отвечать на сообщения
    Вы не можете редактировать свои сообщения
    Вы не можете удалять свои сообщения
    Вы не можете голосовать в опросах
    Вы не можете прикреплять файлы к сообщениям
    Вы не можете скачивать файлы