BitTorrentTracker PerecTracker.org
BitTorrentTracker PerecTracker.org
    
Регистрация  ·  Вход
 
 · 
Забыли пароль?

  • Как я стал русским (Сезон 1 , Серии 1- 20 из 20) (Константин Статский) [2015 , Комедия , WEB-DLRip 1080p]

    Ответить на тему
     
    Автор Сообщение

    Враг Нароода

    Создавать темы 20-Ноя-2015 11:35

           

    [Цитировать]

    --Как я стал русским Сезон 1 , Серии 1-16 из 20----Год выпуска: 2015
    Выпущено: Россия, , MyWay Company, Yellow, Black & White
    Жанр: Комедия
    Продолжительность: 00:25:00
    Сезон: 1
    Серии: 1-20
    Количество серий в сезоне: 20
    Перевод :Не требуется
    Субтитры: Нет----Режиссер: Константин Статский--В ролях: Матеуш Даменцки, Сергей Чирков, Светлана Иванова, Александра Урсуляк, Анастасия Стежко, Виталий Хаев, Денис Пьянов, Никита Панфилов, Елизавета Кононова, Александра Кузенкина, Артем Лысков, Анастасия Акатова, Марина Маняхина, Татьяна Рыбинец, Александр Обласов, Владислав Дунаев--Сотрудник газеты American Post Алекс Уилсон отправляется в долгосрочную командировку в Россию, где ему предстоит не только ежедневно изучать удивительную российскую действительность, но и постепенно постигать загадочную русскую душу. Помимо выполнения редакционных заданий, Алекс заводит личный блог, где каждый день будет пытаться ответить на вопрос «что значит быть русским?»----Качество :WEB-DLRip 1080p
    Формат: MKV
    Видео кодек: H264
    Видео: 4968Кбит/сек,1920х1080(16.9),в 29.976кадр/сек,AVC(High@L4)(CABAC/2 Ref Frames)
    Аудио Кодек:AC3
    Аудио Russian Dolby Digital 5.1:AC3 , 384 Kbps, 48.0 KHz, 6 ch--

    Доп. информация:

    Звуковая дорожка сделана путем наложения чистого голоса озвучивателей на центральный канал оригинальной дорожки. Качество идентично звуковой дорожке.
    --

    MediaInfo

    Общее
    Уникальный идентификатор : 251536773580646283358300418630475570871 (0xBD3C386E7383389781A785B5701FDEB7)
    Полное имя : D:\К О М Е Д И И\Как я стал русским\How_I_became_Russian_2015_S01_RUS[STS_Russia]_H264_DD5.1_N.B_WEB-DLRip_1080p\How_I_became_Russian_2015_S01E01-E04_RUS[STS_Russia]_H264_DD5.1_N.B_WEB-DLRip_1080p.mkv
    Формат : Matroska
    Версия формата : Version 4 / Version 2
    Размер файла : 3,79 Гбайт
    Продолжительность : 1 ч. 39 м.
    Режим общего битрейта : Переменный
    Общий поток : 5461 Кбит/сек
    Название фильма : How_I_became_Russian_2015_S01E01-E04_RUS[STS_Russia]_H264_DD5.1_N.B_WEB-DLRip_1080p
    Дата кодирования : UTC 2015-11-13 18:37:19
    Программа кодирования : mkvmerge v8.5.2 ('Crosses') 64bit
    Библиотека кодирования : libebml v1.3.3 + libmatroska v1.4.4
    DURATION : 01:39:17.220000000
    NUMBER_OF_FRAMES : 186160
    NUMBER_OF_BYTES : 285941760
    _STATISTICS_WRITING_APP : mkvmerge v8.5.2 ('Crosses') 64bit
    _STATISTICS_WRITING_DATE_UTC : 2015-11-13 18:37:19
    _STATISTICS_TAGS : BPS DURATION NUMBER_OF_FRAMES NUMBER_OF_BYTES
    Видео
    Идентификатор : 1
    Формат : AVC
    Формат/Информация : Advanced Video Codec
    Профиль формата : High@L4
    Параметр CABAC формата : Да
    Параметр ReFrames формата : 2 кадра
    Параметр GOP формата : M=2, N=15
    Идентификатор кодека : V_MPEG4/ISO/AVC
    Продолжительность : 1 ч. 39 м.
    Вид битрейта : Переменный
    Битрейт : 4968 Кбит/сек
    Максимальный битрейт : 16,0 Мбит/сек
    Ширина : 1920 пикселей
    Высота : 1080 пикселей
    Соотношение сторон : 16:9
    Режим частоты кадров : Постоянный
    Частота кадров : 29,970 кадров/сек
    Цветовое пространство : YUV
    Субдискретизация насыщенности : 4:2:0
    Битовая глубина : 8 бит
    Тип развёртки : Прогрессивная
    Бит/(Пиксели*Кадры) : 0.080
    Размер потока : 3,45 Гбайт (91%)
    Язык : English
    Default : Нет
    Forced : Нет
    Аудио
    Идентификатор : 2
    Формат : AC-3
    Формат/Информация : Audio Coding 3
    Расширение режима : CM (complete main)
    Параметр Endianness формата : Big
    Идентификатор кодека : A_AC3
    Продолжительность : 1 ч. 39 м.
    Вид битрейта : Постоянный
    Битрейт : 384 Кбит/сек
    Каналы : 6 каналов
    Расположение каналов : Front: L C R, Side: L R, LFE
    Частота : 48,0 КГц
    Метод сжатия : С потерями
    Размер потока : 273 Мбайт (7%)
    Default : Нет
    Forced : Нет
    --

    Скриншоты

    ----

    Как закачать отдельный файл

    1. Открыть торрент
    2. Снять галки с тех файлов торрента, которые мы не хотим закачивать. Оставляем только на нужных нам файлах (файле).
    3. Нажать О.К.
    В клиенте utorrent
    Инструкция
    1) Открыть торрент

    2) Снять галки с тех файлов торрента, которые мы не хотим закачивать:
    * либо вручную, снимая с каждого файла галку( скрин №1)
    * либо, нажав кнопку "Снять метки (Select None)", сняв сразу со всех файлов(скрин №2)
    №1

    №2

    Оставляем только на нужных нам файлах (файле).

    3)Нажать О.К
    ------Внимание!!! 03.12. 2015. РАЗДАЧА ОБНОВЛЕНА. ФИНАЛ СЕЗОНА.ОБНОВИТЕ ТОРЕНТ ФАЙЛ.ПРИЯТНОГО ПРОСМОТРА . --Релиз от: Nikolai.Baranov & PIRATIYA --------
    Скачать .torrent

    Скачать торрент-файл бесплатно и на максимальной скорости!

    Как скачивать? · Что такое торрент? · Рейтинг и ограничения

    !ВНИМАНИЕ!
    Сайт не распространяет и не хранит электронные версии произведений, а занимается лишь лишь предоставлением доступа к создаваемому пользователями каталогу ссылок на торрент-файлы, которые содержат только списки хеш-сумм, убедительная просьба с жалобами обращаться напрямую к пользователю. Файлы для обмена на трекере предоставлены пользователями сайта, и администрация не несёт ответственности за их содержание. Просьба не заливать файлы, защищенные авторскими правами, а также файлы нелегального содержания!


    _________________

    Легко быть оптимистом, когда судьба не валит с ног тяжелыми ударами, а лишь иногда легонько шлепает по заднице.
    [Профиль] [ЛС]
    Показать сообщения:    
    Ответить на тему

    Текущее время: Сегодня, в 07:03

    Часовой пояс: GMT + 2



    Вы не можете начинать темы
    Вы не можете отвечать на сообщения
    Вы не можете редактировать свои сообщения
    Вы не можете удалять свои сообщения
    Вы не можете голосовать в опросах
    Вы не можете прикреплять файлы к сообщениям
    Вы не можете скачивать файлы