BitTorrentTracker PerecTracker.org
BitTorrentTracker PerecTracker.org
    
Регистрация  ·  Вход
 
 · 
Забыли пароль?

  • Молодёжка / Сезон: 3 / Серии: 1-40 из 40 (Сергей Арланов) [2015, Драма, спорт, WEBRip]

    Ответить на тему
     
    Автор Сообщение

    rechyn

    Создавать темы 18-Ноя-2015 13:49

           

    [Цитировать]

    Молодёжка
    Год выпуска: 2015
    Производство: Россия, ООО Арт Пикчерс Вижн при поддержке КХЛ
    Жанр: Драма, спорт
    Продолжительность: ~ 00:46:00 / Серия
    Субтитры: Нет
    Режиссёр: Сергей Арланов
    В ролях: Денис Никифоров, Андрей Мерзликин, Михаил Жигалов, Фёдор Бондарчук, Сергей Габриэлян, Владимир Зайцев, Сергей Комаров, Анатолий Кот, Анатолий Лобоцкий, Ксения Лаврова-Глинка, Серафима Низовская, Валентина Ананьина, Макар Запорожский, Александр Соколовский, Влад Канопка, Илья Коробко, Игорь Огурцов, Иван Жвакин, Анна Михайловская, Мария Иващенко, Иван Мулин, Иван Дубровский, Матвей Зубалевич, Валерия Гладилина, Юлия Маргулис, Мария Пирогова
    Описание: «Молодежка» — сериал о хоккейной команде «Медведи», которая никак не может выбиться в лидеры своей лиги. Все меняется с приходом нового тренера — Сергея Макеева, в прошлом блестящего игрока, отказавшегося от профессионального спорта из-за травмы. Макееву нелегко вести ребят к победе, ведь молодые люди не только желают строить карьеру, но и имеют бурную личную жизнь. Однако тренер все-таки делает из аутсайдеров сплоченную и достойную команду победителей. С каждым сезоном игроки взрослеют и приближаются к серьезному, «настоящему» хоккею. Матчи становятся все более захватывающими, а жизнь за пределами площадки — все сложнее. 3 сезон сериала «Молодежка», как и предыдущий, будет полон сюрпризов и перемен: в команде появятся новые игроки и тренер-иностранец. Как сложатся его отношения с Сергеем Макеевым и кто теперь играет за «Медведей», узнает тот, кто будет смотреть новый сезон «Молодежки». Сериал, впрочем, не только о спорте, но и о любви, дружбе, выборе своего пути. Поэтому в новых сериях можно будет увидеть личностное развитие любимых персонажей и новых героев. Одни из них станут родителями, другие поймут, что настало время что-то менять, а некоторые проявят себя с неожиданной стороны.

    Качество: WEBRip
    Формат: AVI
    Видео кодек: XviD
    Аудио кодек: MP3
    Видео: XviD, 704x400 (16:9), ~ 1800 Кбит/с, 25 кадр/с, 0.246 bit/pixel
    Аудио: Русский, MP3, 48000 Гц, 128 Кбит/с, 2 канала (Стерео)

    Все раздачи сериала
    Сторонняя реклама в видеоряде - отсутствует!
    Автор рипа - ivandubskoj

    MI

    General
    Complete name : Molodjozhka.s03.e01.WEB-DLRip.avi
    Format : AVI
    Format/Info : Audio Video Interleave
    File size : 651 MiB
    Duration : 48mn 35s
    Overall bit rate : 1 872 Kbps
    Writing application : VirtualDubMod 1.5.10.3 | www.virtualdub-fr.org || (build 2550/release)
    Writing library : VirtualDubMod build 2550/release
    Video
    ID : 0
    Format : MPEG-4 Visual
    Format profile : Advanced Simple@L5
    Format settings, BVOP : 1
    Format settings, QPel : No
    Format settings, GMC : No warppoints
    Format settings, Matrix : Custom
    Codec ID : XVID
    Codec ID/Hint : XviD
    Duration : 48mn 35s
    Bit rate : 1 735 Kbps
    Width : 704 pixels
    Height : 400 pixels
    Display aspect ratio : 16:9
    Frame rate : 25.000 fps
    Color space : YUV
    Chroma subsampling : 4:2:0
    Bit depth : 8 bits
    Scan type : Progressive
    Compression mode : Lossy
    Bits/(Pixel*Frame) : 0.246
    Stream size : 603 MiB (93%)
    Writing library : XviD 73
    Audio
    ID : 1
    Format : MPEG Audio
    Format version : Version 1
    Format profile : Layer 3
    Codec ID : 55
    Codec ID/Hint : MP3
    Duration : 48mn 35s
    Bit rate mode : Constant
    Bit rate : 128 Kbps
    Channel(s) : 2 channels
    Sampling rate : 48.0 KHz
    Compression mode : Lossy
    Stream size : 44.5 MiB (7%)
    Alignment : Aligned on interleaves
    Interleave, duration : 40 ms (1.00 video frame)
    Interleave, preload duration : 504 ms
    Writing library : LAME3.99r
    Encoding settings : -m s -V 4 -q 5 -lowpass 17 -b 128

    Скриншоты

    Скачать .torrent

    Скачать торрент-файл бесплатно и на максимальной скорости!

    Как скачивать? · Что такое торрент? · Рейтинг и ограничения

    !ВНИМАНИЕ!
    Сайт не распространяет и не хранит электронные версии произведений, а занимается лишь лишь предоставлением доступа к создаваемому пользователями каталогу ссылок на торрент-файлы, которые содержат только списки хеш-сумм, убедительная просьба с жалобами обращаться напрямую к пользователю. Файлы для обмена на трекере предоставлены пользователями сайта, и администрация не несёт ответственности за их содержание. Просьба не заливать файлы, защищенные авторскими правами, а также файлы нелегального содержания!


    _________________
    [Профиль] [ЛС]
    Показать сообщения:    
    Ответить на тему

    Текущее время: Сегодня, в 20:35

    Часовой пояс: GMT + 2



    Вы не можете начинать темы
    Вы не можете отвечать на сообщения
    Вы не можете редактировать свои сообщения
    Вы не можете удалять свои сообщения
    Вы не можете голосовать в опросах
    Вы не можете прикреплять файлы к сообщениям
    Вы не можете скачивать файлы