BitTorrentTracker PerecTracker.org
BitTorrentTracker PerecTracker.org
    
Регистрация  ·  Вход
 
 · 
Забыли пароль?

  • Пограбування / Швидкість: Автобус 657 / Heist (Скот Манн) [2015 р., бойовик, трилер, WEB-DLRip] MVO Ukr

    Ответить на тему
     
    Автор Сообщение

    older

    Создавать темы 18-Ноя-2015 08:40

           

    [Цитировать]

    Пограбування / Швидкість: Автобус 657 / Heist

    Рік випуску: 2015
    Країна: США
    Кіностудія / кінокомпанія: Emmett/Furla Films, Mass Hysteria Entertainment, Randall Emmett / George Furla Productions
    Жанр: бойовик, трилер
    Тривалість: 01:32:34
    Субтитри: відсутні
    Переклад: багатоголосий, закадровий (професійний) - Line In
    Аудіодоріжка: українська-Режисер: Скот Манн
    Сценарій: Стівен Сефер, Макс Адамс
    Продюсер: Рендолл Емметт, Джордж Фурла, Уейн Марк Годфрі-Світова прем'єра: 11 листопада 2015
    Обмеження за віком: 16+- -Актори: Джефрі Дін Морґан / Jeffrey Dean Morgan, Роберт де Ніро / Robert De Niro, Кейт Босворт / Kate Bosworth, Дейв Батіста / Dave Batista, Марк-Пол Ґосселаар / Mark-Paul Gosselaar, Джина Карано / Gina Carano, Морріс Честнат / Morris Chestnut, Д.Б. Свіні / D.B. Sweeney, Саммер Елтіс / Summer Altice, Лідія Галл / Lydia Hull-Сюжет: Бос мафії не рахується ні з ким. Головне для нього - це блиск грошей і те, що шоу має тривати...
    Круп'є, з метою роздобути грошей на лікування доньки і охоронець, жадаючий легкої наживи, вирішують винести з каси кілька мільйонів доларів. Захопивши автобус, повний заручників, вони відчайдушно намагаються врятуватися від погоні поліції і мафії. В операції по захопленню злочинців беруть участь сотні поліцейських машин, красуня-коп і агент ФБР.
    На шаленій швидкості автобус мчить до мексиканського кордону. Пальне на межі. І, здається, виходу немає...-Формат: AVI
    Якість: WEB-DLRip
    Відео кодек: XviD
    Відео: 720x304 (2,35:1), 2024 kbps, 23.976 fps, 0.386 bit/pixel
    Аудіо: AC3, 48 kHz, 2 ch, 192 kbps-Джерело:

    MediaInfo

    Общее
    Полное имя                               : \Heist (2015) WEBDLRip  [UKR] [Hurtom].avi
    Формат                                   : AVI
    Формат/Информация                        : Audio Video Interleave
    Размер файла                             : 1,44 Гбайт
    Продолжительность                        : 1 ч. 32 м.
    Общий поток                              : 2226 Кбит/сек
    Программа кодирования                    : VirtualDubMod 1.5.10.2 (build 2540/release)
    Библиотека кодирования                   : VirtualDubMod build 2540/release
    Видео
    Идентификатор                            : 0
    Формат                                   : MPEG-4 Visual
    Профиль формата                          : Advanced Simple@L5
    Параметр BVOP формата                    : 1
    Параметр QPel формата                    : Нет
    Параметр GMC формата                     : Без точки перехода
    Параметр матрицы формата                 : Выборочная
    Идентификатор кодека                     : XVID
    Идентификатор кодека/Подсказка           : XviD
    Продолжительность                        : 1 ч. 32 м.
    Битрейт                                  : 2024 Кбит/сек
    Ширина                                   : 720 пикселей
    Высота                                   : 304 пикселя
    Соотношение сторон                       : 2,35:1
    Частота кадров                           : 23,976 кадра/сек
    Цветовое пространство                    : YUV
    Субдискретизация насыщенности            : 4:2:0
    Битовая глубина                          : 8 бит
    Тип развёртки                            : Прогрессивная
    Метод сжатия                             : С потерями
    Бит/(Пиксели*Кадры)                      : 0.386
    Размер потока                            : 1,31 Гбайт (91%)
    Библиотека кодирования                   : XviD 73
    Аудио
    Идентификатор                            : 1
    Формат                                   : AC-3
    Формат/Информация                        : Audio Coding 3
    Расширение режима                        : CM (complete main)
    Параметр Endianness формата              : Big
    Идентификатор кодека                     : 2000
    Продолжительность                        : 1 ч. 32 м.
    Вид битрейта                             : Постоянный
    Битрейт                                  : 192 Кбит/сек
    Каналы                                   : 2 канала
    Расположение каналов                     : Front: L R
    Частота                                  : 48,0 КГц
    Битовая глубина                          : 16 бит
    Метод сжатия                             : С потерями
    Размер потока                            : 127 Мбайт (9%)
    Выравнивание                             : Разделение по промежуткам
    Продолжительность промежутка             : 42  мс. (1,00 видеокадр)
    Время предзагрузки промежутка            : 500  мс.

    Скріншоти

    Скачать .torrent

    Скачать торрент-файл бесплатно и на максимальной скорости!

    Как скачивать? · Что такое торрент? · Рейтинг и ограничения

    !ВНИМАНИЕ!
    Сайт не распространяет и не хранит электронные версии произведений, а занимается лишь лишь предоставлением доступа к создаваемому пользователями каталогу ссылок на торрент-файлы, которые содержат только списки хеш-сумм, убедительная просьба с жалобами обращаться напрямую к пользователю. Файлы для обмена на трекере предоставлены пользователями сайта, и администрация не несёт ответственности за их содержание. Просьба не заливать файлы, защищенные авторскими правами, а также файлы нелегального содержания!


    _________________
    [Профиль] [ЛС]
    Показать сообщения:    
    Ответить на тему

    Текущее время: Сегодня, в 20:38

    Часовой пояс: GMT + 2



    Вы не можете начинать темы
    Вы не можете отвечать на сообщения
    Вы не можете редактировать свои сообщения
    Вы не можете удалять свои сообщения
    Вы не можете голосовать в опросах
    Вы не можете прикреплять файлы к сообщениям
    Вы не можете скачивать файлы