BitTorrentTracker PerecTracker.org
BitTorrentTracker PerecTracker.org
    
Регистрация  ·  Вход
 
 · 
Забыли пароль?

  • Життя навиворiт / La vie à l'envers (Анн Джефері) [2014 р., драма, комедія, WEBRip] MVO (КіТ) Ukr

    Ответить на тему
     
    Автор Сообщение

    older

    Создавать темы 18-Ноя-2015 07:56

           

    [Цитировать]

    Життя навиворiт / La vie à l'envers

    Рік випуску: 2014
    Країна: Франція
    Кіностудія / кінокомпанія: Caminando Productions Et AB Productions
    Жанр: драма, комедія
    Тривалість: 01:30:23
    Субтитри: відсутні
    Переклад: багатоголосий, закадровий (професійний) - КіТ
    Аудіодоріжка: українська-Режисер: Анн Джефері
    Сценарій: Анн Джефері
    Продюсер: Катерина Рюо-Світова прем'єра: 16 жовтня 2014
    Обмеження за віком: нема- -Актори: Паскаль Арбілот, Жюльен Буаселье, Ізабель Каре, Гійом де Тонкедек, Марта Келлер, Барбара Шульц, Домінік Фрот-Сюжет: До жаху своїх дочок їх мати Ніна втрачає розум. Їй 70 років і для Клер, Оділь і Джулі це справжнє випробування. Їхнє життя перевертається з ніг на голову, але почуття сім'ї, любов, відданість і звичайно ж гумор допоможуть їм пройти через всі труднощі.-Формат: AVI
    Якість: WEBRip
    Відео кодек: XviD
    Відео: 720x384 (16:9), 2115 kbps, 25,000 fps, 0.306 bit/pixel
    Аудіо: AC3, 48 kHz, 2 ch, 192 kbps-Джерело: :

    MediaInfo

    Общее
    Полное имя                               : \La vie a l'envers 2014 [Ukr] WEBRip [Hurtom].avi
    Формат                                   : AVI
    Формат/Информация                        : Audio Video Interleave
    Размер файла                             : 1,46 Гбайт
    Продолжительность                        : 1 ч. 30 м.
    Общий поток                              : 2316 Кбит/сек
    Программа кодирования                    : VirtualDubMod 1.5.10.2 (build 2540/release)
    Библиотека кодирования                   : VirtualDubMod build 2540/release
    Видео
    Идентификатор                            : 0
    Формат                                   : MPEG-4 Visual
    Профиль формата                          : Advanced Simple@L5
    Параметр BVOP формата                    : 1
    Параметр QPel формата                    : Нет
    Параметр GMC формата                     : Без точки перехода
    Параметр матрицы формата                 : Default (MPEG)
    Режим смешивания                         : Сжатый битовый поток
    Идентификатор кодека                     : XVID
    Идентификатор кодека/Подсказка           : XviD
    Продолжительность                        : 1 ч. 30 м.
    Битрейт                                  : 2115 Кбит/сек
    Ширина                                   : 720 пикселей
    Высота                                   : 384 пикселя
    Соотношение сторон                       : 16:9
    Частота кадров                           : 25,000 кадров/сек
    Цветовое пространство                    : YUV
    Субдискретизация насыщенности            : 4:2:0
    Битовая глубина                          : 8 бит
    Тип развёртки                            : Прогрессивная
    Метод сжатия                             : С потерями
    Бит/(Пиксели*Кадры)                      : 0.306
    Размер потока                            : 1,34 Гбайт (91%)
    Библиотека кодирования                   : XviD 1.2.1 (UTC 2008-12-04)
    Аудио
    Идентификатор                            : 1
    Формат                                   : AC-3
    Формат/Информация                        : Audio Coding 3
    Расширение режима                        : CM (complete main)
    Параметр Endianness формата              : Big
    Идентификатор кодека                     : 2000
    Продолжительность                        : 1 ч. 30 м.
    Вид битрейта                             : Постоянный
    Битрейт                                  : 192 Кбит/сек
    Каналы                                   : 2 канала
    Расположение каналов                     : Front: L R
    Частота                                  : 48,0 КГц
    Битовая глубина                          : 16 бит
    Метод сжатия                             : С потерями
    Размер потока                            : 124 Мбайт (8%)
    Выравнивание                             : Разделение по промежуткам
    Продолжительность промежутка             : 40  мс. (1,00 видеокадр)
    Время предзагрузки промежутка            : 500  мс.

    Скріншоти

    Скачать .torrent

    Скачать торрент-файл бесплатно и на максимальной скорости!

    Как скачивать? · Что такое торрент? · Рейтинг и ограничения

    !ВНИМАНИЕ!
    Сайт не распространяет и не хранит электронные версии произведений, а занимается лишь лишь предоставлением доступа к создаваемому пользователями каталогу ссылок на торрент-файлы, которые содержат только списки хеш-сумм, убедительная просьба с жалобами обращаться напрямую к пользователю. Файлы для обмена на трекере предоставлены пользователями сайта, и администрация не несёт ответственности за их содержание. Просьба не заливать файлы, защищенные авторскими правами, а также файлы нелегального содержания!


    _________________
    [Профиль] [ЛС]

    -746

    Создавать темы 03-Июн-2016 21:40 (спустя 6 месяцев 15 дней)

           

    Топік був перенесений з форуму Закордонне кіно українською у форум Фільми 2011-2015 українською

    rechyn

    _________________
    Как бы ты высоко не летал, не забывай, с кем ты ползал..
     
    Показать сообщения:    
    Ответить на тему

    Текущее время: Сегодня, в 14:01

    Часовой пояс: GMT + 2



    Вы не можете начинать темы
    Вы не можете отвечать на сообщения
    Вы не можете редактировать свои сообщения
    Вы не можете удалять свои сообщения
    Вы не можете голосовать в опросах
    Вы не можете прикреплять файлы к сообщениям
    Вы не можете скачивать файлы