BitTorrentTracker PerecTracker.org
BitTorrentTracker PerecTracker.org
    
Регистрация  ·  Вход
 
 · 
Забыли пароль?

  • Зоряний час невдахи / Le porte-bonheur (Лорен Дюссо) [2006 р., комедія, драма, WEBRip] MVO (КіТ) Ukr

    Ответить на тему
     
    Автор Сообщение

    older

    Создавать темы 18-Ноя-2015 07:22

           

    [Цитировать]

    Зоряний час невдахи / Le porte-bonheur

    Рік випуску: 2006
    Країна: Франція, Швейцарія
    Кіностудія / кінокомпанія: Cipango Productions Audiovisuelles
    Жанр: комедія, драма
    Тривалість: 01:30:43
    Субтитри: відсутні
    Переклад: багатоголосий, закадровий (професійний) - КіТ
    Аудіодоріжка: українська-Режисер: Лорен Дюссо
    Сценарій: Ніколас Брандо, Лорен Дюссо, Гі Лоран
    Продюсер: Томас Аргірос, Едуард де Мессін-Світова прем'єра: 26 вересня 2006
    Обмеження за віком: нема- -Актори: Атмен Келіф, Паскаль Елбе, Ольга Куриленко, Олів'є Брошеріо, Беатріс Аженен, Андре Пенверн, Філіп Кражак, Міглен Міртчев, Філіп Ріго, Анка Радічі-Сюжет: Святкуючи свій тридцятий день народження, Марс думає про те, що жоден з днів його життя, наскільки він пам'ятає, не пройшов без пригоди. Його життя повне невдач і схожа на суцільну катастрофу. Він живе так, як всі щасливі зірки були проти нього. Одного разу він зустрічає Софію, вона прекрасна настільки, наскільки можна собі уявити, Марс закохується миттєво. Але не з його щастям сподіватися на те, що все піде гладко. Софія у великій проблемі: її сина вкрали і у неї є 24 години на те, щоб роздобути викуп. Марс вирішує допомогти, не сподіваючись на удачу він звертається до своєї матері, астрологу. Він повинен отримати шанс, навіть якщо цей шанс злегка незвичайний. У Марса є 24 години на те, щоб допомогти Софії і змінити своє життя назавжди.-Формат: AVI
    Якість: WEBRip
    Відео кодек: XviD
    Відео: 720x384 (16:9), 2107 kbps, 25,000 fps, 0.305 bit/pixel
    Аудіо: AC3, 48 kHz, 2 ch, 192 kbps-Джерело:

    MediaInfo

    Общее
    Полное имя                               : \Le porte-bonheur 2006 [Ukr] WEBRip [Hurtom].avi
    Формат                                   : AVI
    Формат/Информация                        : Audio Video Interleave
    Размер файла                             : 1,46 Гбайт
    Продолжительность                        : 1 ч. 30 м.
    Общий поток                              : 2309 Кбит/сек
    Программа кодирования                    : VirtualDubMod 1.5.10.2 (build 2540/release)
    Библиотека кодирования                   : VirtualDubMod build 2540/release
    Видео
    Идентификатор                            : 0
    Формат                                   : MPEG-4 Visual
    Профиль формата                          : Advanced Simple@L5
    Параметр BVOP формата                    : 1
    Параметр QPel формата                    : Нет
    Параметр GMC формата                     : Без точки перехода
    Параметр матрицы формата                 : Default (MPEG)
    Режим смешивания                         : Сжатый битовый поток
    Идентификатор кодека                     : XVID
    Идентификатор кодека/Подсказка           : XviD
    Продолжительность                        : 1 ч. 30 м.
    Битрейт                                  : 2107 Кбит/сек
    Ширина                                   : 720 пикселей
    Высота                                   : 384 пикселя
    Соотношение сторон                       : 16:9
    Частота кадров                           : 25,000 кадров/сек
    Цветовое пространство                    : YUV
    Субдискретизация насыщенности            : 4:2:0
    Битовая глубина                          : 8 бит
    Тип развёртки                            : Прогрессивная
    Метод сжатия                             : С потерями
    Бит/(Пиксели*Кадры)                      : 0.305
    Размер потока                            : 1,34 Гбайт (91%)
    Библиотека кодирования                   : XviD 1.2.1 (UTC 2008-12-04)
    Аудио
    Идентификатор                            : 1
    Формат                                   : AC-3
    Формат/Информация                        : Audio Coding 3
    Расширение режима                        : CM (complete main)
    Параметр Endianness формата              : Big
    Идентификатор кодека                     : 2000
    Продолжительность                        : 1 ч. 30 м.
    Вид битрейта                             : Постоянный
    Битрейт                                  : 192 Кбит/сек
    Каналы                                   : 2 канала
    Расположение каналов                     : Front: L R
    Частота                                  : 48,0 КГц
    Битовая глубина                          : 16 бит
    Метод сжатия                             : С потерями
    Размер потока                            : 125 Мбайт (8%)
    Выравнивание                             : Разделение по промежуткам
    Продолжительность промежутка             : 40  мс. (1,00 видеокадр)
    Время предзагрузки промежутка            : 500  мс.

    Скріншоти

    Скачать .torrent

    Скачать торрент-файл бесплатно и на максимальной скорости!

    Как скачивать? · Что такое торрент? · Рейтинг и ограничения

    !ВНИМАНИЕ!
    Сайт не распространяет и не хранит электронные версии произведений, а занимается лишь лишь предоставлением доступа к создаваемому пользователями каталогу ссылок на торрент-файлы, которые содержат только списки хеш-сумм, убедительная просьба с жалобами обращаться напрямую к пользователю. Файлы для обмена на трекере предоставлены пользователями сайта, и администрация не несёт ответственности за их содержание. Просьба не заливать файлы, защищенные авторскими правами, а также файлы нелегального содержания!


    _________________
    [Профиль] [ЛС]
    Показать сообщения:    
    Ответить на тему

    Текущее время: Сегодня, в 22:19

    Часовой пояс: GMT + 2



    Вы не можете начинать темы
    Вы не можете отвечать на сообщения
    Вы не можете редактировать свои сообщения
    Вы не можете удалять свои сообщения
    Вы не можете голосовать в опросах
    Вы не можете прикреплять файлы к сообщениям
    Вы не можете скачивать файлы