BitTorrentTracker PerecTracker.org
BitTorrentTracker PerecTracker.org
    
Регистрация  ·  Вход
 
 · 
Забыли пароль?

  • Володар перснів. Трилогія / The Lord of the Rings. Trilogy (Пітер Джексон) [2001-2003 р., фентезі, пригоди, BDRip] MVO 2xUkr + Original

    Ответить на тему
     
    Автор Сообщение

    older

    Создавать темы 18-Ноя-2015 03:45

           

    [Цитировать]

    Володар перснів. Трилогія / The Lord of the Rings. Trilogy

    Рік випуску: 2001-2003
    Країна: Нова Зеландія, США
    Кіностудія / кінокомпанія: New Line Cinema, WingNut Films, The Saul Zaentz Company
    Жанр: фентезі, пригоди
    Тривалість: 02:58:24 + 02:59:24 + 03:21:01
    Субтитри: відсутні
    Переклад: багатоголосий, закадровий (професійний) - 1+1 + Новий канал (перекладено і озвучено на студії ТВ+ на замовлення телекомпанії ICTV)
    Аудіодоріжка: дві українські, англійська (окремим файлом)-Режисер: Пітер Джексон
    Сценарій: Френсіс Волш, Філіппа Бойєнс, Пітер Джексон
    Продюсер: Пітер Джексон, Баррі М. Осборн, Тім Сандерс-Світова прем'єра: 10 грудня 2001
    Обмеження за віком: нема- -Актори: Елайджа Вуд / Elijah Wood, Єн Маккеллен / Ian McKellen, Віґо Мортенсен / Viggo Mortensen, Шон Бін / Sean Bean, Орландо Блум / Orlando Bloom, Джон Різ-Девіс / John Rhys-Davies, Єн Гольм / Ian Holm, Шон Естін / Sean Astin, Біллі Бойд / Billy Boyd, Домінік Монаґан / Dominic Monaghan, Г'юґо Вівінґ / Hugo Weaving, Кейт Бланшет / Cate Blanchett, Лів Тайлер / Liv Tyler, Енді Серкіс / Andy Serkis, Крістофер Лі / Christopher Lee-Сюжет: Разом зі своїми супутниками та друзями Фродо вирушає у далеку і небезпечну дорогу, щоб виконати не менш небезпечну місію - він має знищити легендарний Перстень. І майже одразу його почали переслідувати слуги Темного Владаря. Підступний Саурон колись уже створив Перстень - і якщо він знову потрапить до його рук - то Середзем'я буде навіки втрачене.
    Продовження трилогії-екранізації найвідомішого твору Толкіна - доки Фродо та його супутники намагаються обійти численні пастки і кордони, прагнучи знищити Кільце Всевладдя в полум'ї гори, на якій його було створено, люди з форпосту Середзем'я - країни Рохан - готуються відбивати перші атаки армії Мордора, а в їхньому тилу тим часом відбувається зрада - один з верховних магів Саруман переходить на сторону ворога і починає створювати свою армію.
    Заключна частина трилогії про війну за Середзем'я - Фродо, з охорони якого залишився лише найкращий друг Сем, з останніх сил намагається здолати неприступні гори Мордору, а люди, ельфи та гноми готуються обороняти ворота до своєї країни: фортецю Мінас-Тіріт, столицю королівства людей Гондора.-Формат: AVI
    Якість: BDRip
    Відео кодек: XviD
    Відео: 720x304 (2,35:1), 1672-1934 kbps, 23.976 fps, 0.319-0.369 bit/pixel
    Аудіо 1: AC3, 48 kHz, 2 ch, 192 kbps - 1+1
    Аудіо 2: AC3, 48 kHz, 2 ch, 192 kbps - Новий канал
    Аудіо 2: AC3, 48 kHz, 6 ch, 384 kbps - Original (окремим файлом)-Джерело:

    Реліз

    Щира подяка: п. Tanat13, bohun за наданий сирий звук до Аудіо #1, п. dvorsky за наданий сирий звук до Аудіо #2, п. pyatachok, VictorBagrjany, oleg.plavkov, Віктор за українські субтитри і п. thefir за українізований постер.

    Скріншоти

    Назва частин

    Володар перснів: Хранителі персня / The Lord of the Rings: The Fellowship of the Ring (2001)
    Володар перснів: Дві фортеці / Володар перснів: Дві вежі / The Lord of the Rings: The Two Towers (2002)
    Володар перснів: Повернення короля / The Lord of the Rings: The Return of the King (2003)

    MediaInfo: 1 частина

    Общее
    Полное имя                               : \The Lord of the Rings Trilogy (2001-2002-2003) [Hurtom]\The Lord of the Rings. The Fellowship of the Ring (2001) [2xUkr] BDRip [Hurtom].avi
    Формат                                   : AVI
    Формат/Информация                        : Audio Video Interleave
    Профиль формата                          : OpenDML
    Размер файла                             : 2,91 Гбайт
    Продолжительность                        : 2 ч. 58 м.
    Общий поток                              : 2335 Кбит/сек
    Программа кодирования                    : VirtualDubMod 1.5.10.3 | www.virtualdub-fr.org || (build 2550/release)
    Библиотека кодирования                   : VirtualDubMod build 2550/release
    Видео
    Идентификатор                            : 0
    Формат                                   : MPEG-4 Visual
    Профиль формата                          : Advanced Simple@L5
    Параметр BVOP формата                    : 1
    Параметр QPel формата                    : Нет
    Параметр GMC формата                     : Без точки перехода
    Параметр матрицы формата                 : Default (MPEG)
    Идентификатор кодека                     : XVID
    Идентификатор кодека/Подсказка           : XviD
    Продолжительность                        : 2 ч. 58 м.
    Битрейт                                  : 1934 Кбит/сек
    Ширина                                   : 720 пикселей
    Высота                                   : 304 пикселя
    Соотношение сторон                       : 2,35:1
    Частота кадров                           : 23,976 кадра/сек
    Цветовое пространство                    : YUV
    Субдискретизация насыщенности            : 4:2:0
    Битовая глубина                          : 8 бит
    Тип развёртки                            : Прогрессивная
    Метод сжатия                             : С потерями
    Бит/(Пиксели*Кадры)                      : 0.369
    Размер потока                            : 2,41 Гбайт (83%)
    Библиотека кодирования                   : XviD 1.2.1 (UTC 2008-12-04)
    Аудио #1
    Идентификатор                            : 1
    Формат                                   : AC-3
    Формат/Информация                        : Audio Coding 3
    Расширение режима                        : CM (complete main)
    Параметр Endianness формата              : Big
    Идентификатор кодека                     : 2000
    Продолжительность                        : 2 ч. 58 м.
    Вид битрейта                             : Постоянный
    Битрейт                                  : 192 Кбит/сек
    Каналы                                   : 2 канала
    Расположение каналов                     : Front: L R
    Частота                                  : 48,0 КГц
    Битовая глубина                          : 16 бит
    Метод сжатия                             : С потерями
    Размер потока                            : 245 Мбайт (8%)
    Выравнивание                             : Разделение по промежуткам
    Продолжительность промежутка             : 42  мс. (1,00 видеокадр)
    Время предзагрузки промежутка            : 500  мс.
    Аудио #2
    Идентификатор                            : 2
    Формат                                   : AC-3
    Формат/Информация                        : Audio Coding 3
    Расширение режима                        : CM (complete main)
    Параметр Endianness формата              : Big
    Идентификатор кодека                     : 2000
    Продолжительность                        : 2 ч. 58 м.
    Вид битрейта                             : Постоянный
    Битрейт                                  : 192 Кбит/сек
    Каналы                                   : 2 канала
    Расположение каналов                     : Front: L R
    Частота                                  : 48,0 КГц
    Битовая глубина                          : 16 бит
    Метод сжатия                             : С потерями
    Размер потока                            : 245 Мбайт (8%)
    Выравнивание                             : Разделение по промежуткам
    Продолжительность промежутка             : 42  мс. (1,00 видеокадр)
    Время предзагрузки промежутка            : 500  мс.

    MediaInfo: 2 частина

    Общее
    Полное имя                               : \The Lord of the Rings Trilogy (2001-2002-2003) [Hurtom]\The Lord of the Rings. The Two Towers (2002) [2xUkr] BDRip [Hurtom].avi
    Формат                                   : AVI
    Формат/Информация                        : Audio Video Interleave
    Профиль формата                          : OpenDML
    Размер файла                             : 2,91 Гбайт
    Продолжительность                        : 2 ч. 59 м.
    Общий поток                              : 2323 Кбит/сек
    Программа кодирования                    : VirtualDubMod 1.5.10.3 | www.virtualdub-fr.org || (build 2550/release)
    Библиотека кодирования                   : VirtualDubMod build 2550/release
    Видео
    Идентификатор                            : 0
    Формат                                   : MPEG-4 Visual
    Профиль формата                          : Advanced Simple@L5
    Параметр BVOP формата                    : 1
    Параметр QPel формата                    : Нет
    Параметр GMC формата                     : Без точки перехода
    Параметр матрицы формата                 : Default (MPEG)
    Идентификатор кодека                     : XVID
    Идентификатор кодека/Подсказка           : XviD
    Продолжительность                        : 2 ч. 59 м.
    Битрейт                                  : 1923 Кбит/сек
    Ширина                                   : 720 пикселей
    Высота                                   : 304 пикселя
    Соотношение сторон                       : 2,35:1
    Частота кадров                           : 23,976 кадра/сек
    Цветовое пространство                    : YUV
    Субдискретизация насыщенности            : 4:2:0
    Битовая глубина                          : 8 бит
    Тип развёртки                            : Прогрессивная
    Метод сжатия                             : С потерями
    Бит/(Пиксели*Кадры)                      : 0.366
    Размер потока                            : 2,41 Гбайт (83%)
    Библиотека кодирования                   : XviD 1.2.1 (UTC 2008-12-04)
    Аудио #1
    Идентификатор                            : 1
    Формат                                   : AC-3
    Формат/Информация                        : Audio Coding 3
    Расширение режима                        : CM (complete main)
    Параметр Endianness формата              : Big
    Идентификатор кодека                     : 2000
    Продолжительность                        : 2 ч. 59 м.
    Вид битрейта                             : Постоянный
    Битрейт                                  : 192 Кбит/сек
    Каналы                                   : 2 канала
    Расположение каналов                     : Front: L R
    Частота                                  : 48,0 КГц
    Битовая глубина                          : 16 бит
    Метод сжатия                             : С потерями
    Размер потока                            : 246 Мбайт (8%)
    Выравнивание                             : Разделение по промежуткам
    Продолжительность промежутка             : 42  мс. (1,00 видеокадр)
    Время предзагрузки промежутка            : 500  мс.
    Аудио #2
    Идентификатор                            : 2
    Формат                                   : AC-3
    Формат/Информация                        : Audio Coding 3
    Расширение режима                        : CM (complete main)
    Параметр Endianness формата              : Big
    Идентификатор кодека                     : 2000
    Продолжительность                        : 2 ч. 59 м.
    Вид битрейта                             : Постоянный
    Битрейт                                  : 192 Кбит/сек
    Каналы                                   : 2 канала
    Расположение каналов                     : Front: L R
    Частота                                  : 48,0 КГц
    Битовая глубина                          : 16 бит
    Метод сжатия                             : С потерями
    Размер потока                            : 246 Мбайт (8%)
    Выравнивание                             : Разделение по промежуткам
    Продолжительность промежутка             : 42  мс. (1,00 видеокадр)
    Время предзагрузки промежутка            : 500  мс.

    MediaInfo: 3 частина

    Общее
    Полное имя                               : \The Lord of the Rings Trilogy (2001-2002-2003) [Hurtom]\The Lord of the Rings. The Return of the King (2003) [2xUkr] BDRip [Hurtom].avi
    Формат                                   : AVI
    Формат/Информация                        : Audio Video Interleave
    Профиль формата                          : OpenDML
    Размер файла                             : 2,91 Гбайт
    Продолжительность                        : 3 ч. 21 м.
    Общий поток                              : 2072 Кбит/сек
    Программа кодирования                    : VirtualDubMod 1.5.10.3 | www.virtualdub-fr.org || (build 2550/release)
    Библиотека кодирования                   : VirtualDubMod build 2550/release
    Видео
    Идентификатор                            : 0
    Формат                                   : MPEG-4 Visual
    Профиль формата                          : Advanced Simple@L5
    Параметр BVOP формата                    : 1
    Параметр QPel формата                    : Нет
    Параметр GMC формата                     : Без точки перехода
    Параметр матрицы формата                 : Default (MPEG)
    Идентификатор кодека                     : XVID
    Идентификатор кодека/Подсказка           : XviD
    Продолжительность                        : 3 ч. 21 м.
    Битрейт                                  : 1672 Кбит/сек
    Ширина                                   : 720 пикселей
    Высота                                   : 304 пикселя
    Соотношение сторон                       : 2,35:1
    Частота кадров                           : 23,976 кадра/сек
    Цветовое пространство                    : YUV
    Субдискретизация насыщенности            : 4:2:0
    Битовая глубина                          : 8 бит
    Тип развёртки                            : Прогрессивная
    Метод сжатия                             : С потерями
    Бит/(Пиксели*Кадры)                      : 0.319
    Размер потока                            : 2,35 Гбайт (81%)
    Библиотека кодирования                   : XviD 1.2.1 (UTC 2008-12-04)
    Аудио #1
    Идентификатор                            : 1
    Формат                                   : AC-3
    Формат/Информация                        : Audio Coding 3
    Расширение режима                        : CM (complete main)
    Параметр Endianness формата              : Big
    Идентификатор кодека                     : 2000
    Продолжительность                        : 3 ч. 21 м.
    Вид битрейта                             : Постоянный
    Битрейт                                  : 192 Кбит/сек
    Каналы                                   : 2 канала
    Расположение каналов                     : Front: L R
    Частота                                  : 48,0 КГц
    Битовая глубина                          : 16 бит
    Метод сжатия                             : С потерями
    Размер потока                            : 276 Мбайт (9%)
    Выравнивание                             : Разделение по промежуткам
    Продолжительность промежутка             : 42  мс. (1,00 видеокадр)
    Время предзагрузки промежутка            : 500  мс.
    Аудио #2
    Идентификатор                            : 2
    Формат                                   : AC-3
    Формат/Информация                        : Audio Coding 3
    Расширение режима                        : CM (complete main)
    Параметр Endianness формата              : Big
    Идентификатор кодека                     : 2000
    Продолжительность                        : 3 ч. 21 м.
    Вид битрейта                             : Постоянный
    Битрейт                                  : 192 Кбит/сек
    Каналы                                   : 2 канала
    Расположение каналов                     : Front: L R
    Частота                                  : 48,0 КГц
    Битовая глубина                          : 16 бит
    Метод сжатия                             : С потерями
    Размер потока                            : 276 Мбайт (9%)
    Выравнивание                             : Разделение по промежуткам
    Продолжительность промежутка             : 42  мс. (1,00 видеокадр)
    Время предзагрузки промежутка            : 500  мс.
    Скачать .torrent

    Скачать торрент-файл бесплатно и на максимальной скорости!

    Как скачивать? · Что такое торрент? · Рейтинг и ограничения

    !ВНИМАНИЕ!
    Сайт не распространяет и не хранит электронные версии произведений, а занимается лишь лишь предоставлением доступа к создаваемому пользователями каталогу ссылок на торрент-файлы, которые содержат только списки хеш-сумм, убедительная просьба с жалобами обращаться напрямую к пользователю. Файлы для обмена на трекере предоставлены пользователями сайта, и администрация не несёт ответственности за их содержание. Просьба не заливать файлы, защищенные авторскими правами, а также файлы нелегального содержания!


    _________________
    [Профиль] [ЛС]
    Показать сообщения:    
    Ответить на тему

    Текущее время: Сегодня, в 09:49

    Часовой пояс: GMT + 2



    Вы не можете начинать темы
    Вы не можете отвечать на сообщения
    Вы не можете редактировать свои сообщения
    Вы не можете удалять свои сообщения
    Вы не можете голосовать в опросах
    Вы не можете прикреплять файлы к сообщениям
    Вы не можете скачивать файлы