BitTorrentTracker PerecTracker.org
BitTorrentTracker PerecTracker.org
    
Регистрация  ·  Вход
 
 · 
Забыли пароль?

  • Той, що біжить лабіринтом / The Maze Runner (Уес Болл) [2014 р., фантастика, трилер, пригоди, BDRip] DUB Ukr

    Ответить на тему
     
    Автор Сообщение

    older

    Создавать темы 17-Ноя-2015 17:10

           

    [Цитировать]

    Той, що біжить лабіринтом / The Maze Runner

    Рік випуску: 2014
    Країна: США, Канада, Великобритнаія
    Кіностудія / кінокомпанія: 20th Century Fox, Dayday Films, Gotham Group
    Жанр: фантастика, трилер, пригоди
    Тривалість: 01:53:26
    Субтитри: відсутні
    Переклад: дубльований (професійний)
    Аудіодоріжка: українська-Режисер: Уес Болл
    Сценарій: Ной Оппенхайм, Грант Пірс Майерс, Т.С. Наулін
    Продюсер: Марті Бауен, Вік Годфрі, Еллен Голдсміт-Вейн-Світова прем'єра: 11 вересня 2014
    Прем'єра в Україні: 18 вересня 2014, «Ukrainian Film Distribution»
    Обмеження за віком: 16+- -Актори: Ділан О`Браян / Dylan O'Brien, Кая Скоделаріо / Kaya Scodelario, Вілл Поултер / Will Poulter, Томас Сенґстер / Thomas Sangster, Патріція Кларксон / Patricia Clarkson, Кі Хонґ Лі / Ki Hong Lee, Кріс Шеффілд / Chris Sheffield-Сюжет: Головний герой – підліток Томас, який прокидається у ліфті, але не пам’ятає нічого крім свого імені. Він опиняється серед 60 підлітків, що навчилися виживати у замкненому просторі. Раз на 30 днів прибуває новий хлопчик. Група хлопців живе на "галявині" 2 роки. Вони харчуються тим, що можна виростити на землі, і намагаються знайти вихід з лабіринту, що оточує місце, де вони живуть. Коли герої починають втрачати надію, з’являється дівчинка з дивною запискою. Світ героїв починає змінюватися.-Формат: AVI
    Якість: BDRip
    Відео кодек: XviD
    Відео: 720x304 (2,35:1), 1626 kbps, 23.976 fps, 0.310 bit/pixel
    Аудіо: AC3, 48 kHz, 2 ch, 192 kbps-Джерело:

    MediaInfo

    Общее
    Полное имя                               : \The Maze Runner (2014) BDRip [UKR] [Hurtom] by patriot2305.avi
    Формат                                   : AVI
    Формат/Информация                        : Audio Video Interleave
    Размер файла                             : 1,45 Гбайт
    Продолжительность                        : 1 ч. 53 м.
    Общий поток                              : 1827 Кбит/сек
    Программа кодирования                    : VirtualDubMod 1.5.10.2 (build 2540/release)
    Библиотека кодирования                   : VirtualDubMod build 2540/release
    Видео
    Идентификатор                            : 0
    Формат                                   : MPEG-4 Visual
    Профиль формата                          : Advanced Simple@L5
    Параметр BVOP формата                    : 1
    Параметр QPel формата                    : Нет
    Параметр GMC формата                     : Без точки перехода
    Параметр матрицы формата                 : Выборочная
    Идентификатор кодека                     : XVID
    Идентификатор кодека/Подсказка           : XviD
    Продолжительность                        : 1 ч. 53 м.
    Битрейт                                  : 1626 Кбит/сек
    Ширина                                   : 720 пикселей
    Высота                                   : 304 пикселя
    Соотношение сторон                       : 2,35:1
    Частота кадров                           : 23,976 кадра/сек
    Цветовое пространство                    : YUV
    Субдискретизация насыщенности            : 4:2:0
    Битовая глубина                          : 8 бит
    Тип развёртки                            : Прогрессивная
    Метод сжатия                             : С потерями
    Бит/(Пиксели*Кадры)                      : 0.310
    Размер потока                            : 1,29 Гбайт (89%)
    Библиотека кодирования                   : XviD 73
    Аудио
    Идентификатор                            : 1
    Формат                                   : AC-3
    Формат/Информация                        : Audio Coding 3
    Расширение режима                        : CM (complete main)
    Параметр Endianness формата              : Big
    Идентификатор кодека                     : 2000
    Продолжительность                        : 1 ч. 53 м.
    Вид битрейта                             : Постоянный
    Битрейт                                  : 192 Кбит/сек
    Каналы                                   : 2 канала
    Расположение каналов                     : Front: L R
    Частота                                  : 48,0 КГц
    Битовая глубина                          : 16 бит
    Метод сжатия                             : С потерями
    Размер потока                            : 156 Мбайт (11%)
    Выравнивание                             : Разделение по промежуткам
    Продолжительность промежутка             : 42  мс. (1,00 видеокадр)
    Время предзагрузки промежутка            : 500  мс.

    Скріншоти

    Скачать .torrent

    Скачать торрент-файл бесплатно и на максимальной скорости!

    Как скачивать? · Что такое торрент? · Рейтинг и ограничения

    !ВНИМАНИЕ!
    Сайт не распространяет и не хранит электронные версии произведений, а занимается лишь лишь предоставлением доступа к создаваемому пользователями каталогу ссылок на торрент-файлы, которые содержат только списки хеш-сумм, убедительная просьба с жалобами обращаться напрямую к пользователю. Файлы для обмена на трекере предоставлены пользователями сайта, и администрация не несёт ответственности за их содержание. Просьба не заливать файлы, защищенные авторскими правами, а также файлы нелегального содержания!


    _________________
    [Профиль] [ЛС]

    -746

    Создавать темы 03-Июн-2016 21:40 (спустя 6 месяцев 16 дней)

           

    Топік був перенесений з форуму Закордонне кіно українською у форум Фільми 2011-2015 українською

    rechyn

    _________________
    Как бы ты высоко не летал, не забывай, с кем ты ползал..
     
    Показать сообщения:    
    Ответить на тему

    Текущее время: Сегодня, в 17:41

    Часовой пояс: GMT + 2



    Вы не можете начинать темы
    Вы не можете отвечать на сообщения
    Вы не можете редактировать свои сообщения
    Вы не можете удалять свои сообщения
    Вы не можете голосовать в опросах
    Вы не можете прикреплять файлы к сообщениям
    Вы не можете скачивать файлы