BitTorrentTracker PerecTracker.org
BitTorrentTracker PerecTracker.org
    
Регистрация  ·  Вход
 
 · 
Забыли пароль?

  • Антураж / Entourage (Даг Еллін) [2015 р., комедія, BDRip] DUB Ukr

    Ответить на тему
     
    Автор Сообщение

    older

    Создавать темы 17-Ноя-2015 15:47

           

    [Цитировать]

    Антураж / Entourage

    Рік випуску: 2015
    Країна: США
    Кіностудія / кінокомпанія: Closest to the Hole Productions, Entourage Holdings, Home Box Office (HBO), Leverage Entertainment, RatPac Entertainment, Warner Bros. Pictures
    Жанр: комедія
    Тривалість: 01:44:29
    Субтитри: відсутні
    Переклад: дубльований (професійний) - iTunes
    Аудіодоріжка: українська, англійська-Режисер: Даг Еллін
    Сценарій: Даг Еллін, Роб Уайсс
    Продюсер: Даг Еллін, Стівен Левінсон, Марк Уолберг-Світова прем'єра: 27 травня 2015
    Прем'єра в Україні: 30 липня 2015
    Реліз на DVD: 15 жовтня 2015, «CP Дистрибуція»
    Реліз на Blu-Ray: 15 жовтня 2015, «CP Дистрибуція»- -Актори: Кевін Конноллі, Адріан Греньє, Кевін Діллон, Джеррі Феррара, Джеремі Півен, Еммануель Шрікі, Хейлі Джоел Осмент, Ронда Рауза, Рекс Лі, Біллі Боб Торнтон, Перрі Рівз, Дебі Мейзар, Різ Койро, Констанс Зіммер, Скотт Мескада, Алан Дейл, Емілі Ратажковскі, Ніна Агдал, Лукас Еллін, Пірс Морган-Сюжет: Зірка великого екрану Вінсент Чейз і його друзі Ерік, Черепаха і Джонні повертаються назад в бізнес з супер агентом Арі Голдом. Амбіції змінюються, але це змушує їх лише міцніше триматися один за одного в гламурному і часто капризний світі Голлівуду.-Формат: AVI
    Якість: BDRip
    Відео кодек: XviD
    Відео: 720x304 (2,35:1), 1789 kbps, 23.976 fps, 0.341 bit/pixel
    Аудіо: AC3, 48 kHz, 2 ch, 192 kbps-Джерело:

    MediaInfo

    Общее
    Полное имя                               : \Entourage (2015) BDRip [Hurtom].avi
    Формат                                   : AVI
    Формат/Информация                        : Audio Video Interleave
    Размер файла                             : 1,45 Гбайт
    Продолжительность                        : 1 ч. 44 м.
    Общий поток                              : 1990 Кбит/сек
    Программа кодирования                    : VirtualDubMod 1.5.10.3 | www.virtualdub-fr.org || (build 2550/release)
    Библиотека кодирования                   : VirtualDubMod build 2550/release
    Видео
    Идентификатор                            : 0
    Формат                                   : MPEG-4 Visual
    Профиль формата                          : Advanced Simple@L5
    Параметр BVOP формата                    : 1
    Параметр QPel формата                    : Нет
    Параметр GMC формата                     : Без точки перехода
    Параметр матрицы формата                 : Default (H.263)
    Режим смешивания                         : Сжатый битовый поток
    Идентификатор кодека                     : XVID
    Идентификатор кодека/Подсказка           : XviD
    Продолжительность                        : 1 ч. 44 м.
    Битрейт                                  : 1789 Кбит/сек
    Ширина                                   : 720 пикселей
    Высота                                   : 304 пикселя
    Соотношение сторон                       : 2,35:1
    Частота кадров                           : 23,976 кадра/сек
    Цветовое пространство                    : YUV
    Субдискретизация насыщенности            : 4:2:0
    Битовая глубина                          : 8 бит
    Тип развёртки                            : Прогрессивная
    Метод сжатия                             : С потерями
    Бит/(Пиксели*Кадры)                      : 0.341
    Размер потока                            : 1,31 Гбайт (90%)
    Библиотека кодирования                   : XviD 1.2.1 (UTC 2008-12-04)
    Аудио
    Идентификатор                            : 1
    Формат                                   : AC-3
    Формат/Информация                        : Audio Coding 3
    Расширение режима                        : CM (complete main)
    Параметр Endianness формата              : Big
    Идентификатор кодека                     : 2000
    Продолжительность                        : 1 ч. 44 м.
    Вид битрейта                             : Постоянный
    Битрейт                                  : 192 Кбит/сек
    Каналы                                   : 2 канала
    Расположение каналов                     : Front: L R
    Частота                                  : 48,0 КГц
    Битовая глубина                          : 16 бит
    Метод сжатия                             : С потерями
    Размер потока                            : 143 Мбайт (10%)
    Выравнивание                             : Разделение по промежуткам
    Продолжительность промежутка             : 42  мс. (1,00 видеокадр)
    Время предзагрузки промежутка            : 500  мс.

    Скріншоти

    Скачать .torrent

    Скачать торрент-файл бесплатно и на максимальной скорости!

    Как скачивать? · Что такое торрент? · Рейтинг и ограничения

    !ВНИМАНИЕ!
    Сайт не распространяет и не хранит электронные версии произведений, а занимается лишь лишь предоставлением доступа к создаваемому пользователями каталогу ссылок на торрент-файлы, которые содержат только списки хеш-сумм, убедительная просьба с жалобами обращаться напрямую к пользователю. Файлы для обмена на трекере предоставлены пользователями сайта, и администрация не несёт ответственности за их содержание. Просьба не заливать файлы, защищенные авторскими правами, а также файлы нелегального содержания!


    _________________
    [Профиль] [ЛС]
    Показать сообщения:    
    Ответить на тему

    Текущее время: Сегодня, в 14:52

    Часовой пояс: GMT + 2



    Вы не можете начинать темы
    Вы не можете отвечать на сообщения
    Вы не можете редактировать свои сообщения
    Вы не можете удалять свои сообщения
    Вы не можете голосовать в опросах
    Вы не можете прикреплять файлы к сообщениям
    Вы не можете скачивать файлы