BitTorrentTracker PerecTracker.org
BitTorrentTracker PerecTracker.org
    
Регистрация  ·  Вход
 
 · 
Забыли пароль?

  • Одержимість / Whiplash (Дем'єн Шазелл) [2014 р., драма, музичний, BDRip] MVO Ukr

    Ответить на тему
     
    Автор Сообщение

    older

    Создавать темы 17-Ноя-2015 14:52

           

    [Цитировать]

    Одержимість / Whiplash

    Рік випуску: 2014
    Країна: США
    Кіностудія / кінокомпанія: Bold Films, Blumhouse Productions, Right of Way Films
    Жанр: драма, музичний
    Тривалість: 01:46:45
    Субтитри: відсутні
    Переклад: багатоголосий, закадровий (професійний) - Line In
    Аудіодоріжка: українська-Режисер: Дем'єн Шазелл
    Сценарій: Дем'єн Шазелл
    Продюсер: Джейсон Блум, Хелен Естабрук, Девід Ланкастер-Світова прем'єра: 16 січня 2014
    Прем'єра в Україні: 22 січня 2015, «ArtHouse Traffic»
    Реліз на DVD: 26 лютого 2015, «CP Дистрибуція»- -Актори: Майлз Теллер / Miles Teller, Дж. К. Сіммонс / J.K. Simmons, Мелісса Беноіст / Melissa Benoist, Пол Райзер / Paul Reiser, Остін Стоввел / Austin Stowell, Джейсон Блер / Jayson Blair, Ейпріл Ґрейс / April Grace, Деймон Ґаптон / Damon Gupton-Сюжет: Молодий і талановитий барабанщик потрапляє в престижну консерваторію, де його бере під своє "крильце" найбільш шанований викладача у школі. Але методи навчання в нього – жорсткі та цинічні. Наставник не зупинитись ні перед чим, щоб "вичавити" все з учня. Чи витримає такі навантаження – музикант?-Формат: AVI
    Якість: BDRip
    Відео кодек: XviD
    Відео: 720x304 (2,35:1), 1736 kbps, 23.976 fps, 0.331 bit/pixel
    Аудіо: AC3, 48 kHz, 2 ch, 192 kbps-Джерело:

    MediaInfo

    Общее
    Полное имя                               : \Whiplash (2014) BDRip [UKR] [Hurtom].avi
    Формат                                   : AVI
    Формат/Информация                        : Audio Video Interleave
    Размер файла                             : 1,44 Гбайт
    Продолжительность                        : 1 ч. 46 м.
    Общий поток                              : 1937 Кбит/сек
    Программа кодирования                    : VirtualDubModUkr 1.5.10.2 (build 2542/release)
    Библиотека кодирования                   : VirtualDubMod build 2542/release
    Видео
    Идентификатор                            : 0
    Формат                                   : MPEG-4 Visual
    Профиль формата                          : Advanced Simple@L5
    Параметр BVOP формата                    : 1
    Параметр QPel формата                    : Нет
    Параметр GMC формата                     : Без точки перехода
    Параметр матрицы формата                 : Выборочная
    Идентификатор кодека                     : XVID
    Идентификатор кодека/Подсказка           : XviD
    Продолжительность                        : 1 ч. 46 м.
    Битрейт                                  : 1736 Кбит/сек
    Ширина                                   : 720 пикселей
    Высота                                   : 304 пикселя
    Соотношение сторон                       : 2,35:1
    Частота кадров                           : 23,976 кадра/сек
    Цветовое пространство                    : YUV
    Субдискретизация насыщенности            : 4:2:0
    Битовая глубина                          : 8 бит
    Тип развёртки                            : Прогрессивная
    Метод сжатия                             : С потерями
    Бит/(Пиксели*Кадры)                      : 0.331
    Размер потока                            : 1,29 Гбайт (90%)
    Библиотека кодирования                   : XviD 73
    Аудио
    Идентификатор                            : 1
    Формат                                   : AC-3
    Формат/Информация                        : Audio Coding 3
    Расширение режима                        : CM (complete main)
    Параметр Endianness формата              : Big
    Идентификатор кодека                     : 2000
    Продолжительность                        : 1 ч. 46 м.
    Вид битрейта                             : Постоянный
    Битрейт                                  : 192 Кбит/сек
    Каналы                                   : 2 канала
    Расположение каналов                     : Front: L R
    Частота                                  : 48,0 КГц
    Битовая глубина                          : 16 бит
    Метод сжатия                             : С потерями
    Размер потока                            : 147 Мбайт (10%)
    Выравнивание                             : Разделение по промежуткам
    Продолжительность промежутка             : 42  мс. (1,00 видеокадр)
    Время предзагрузки промежутка            : 500  мс.

    Скріншоти

    Скачать .torrent

    Скачать торрент-файл бесплатно и на максимальной скорости!

    Как скачивать? · Что такое торрент? · Рейтинг и ограничения

    !ВНИМАНИЕ!
    Сайт не распространяет и не хранит электронные версии произведений, а занимается лишь лишь предоставлением доступа к создаваемому пользователями каталогу ссылок на торрент-файлы, которые содержат только списки хеш-сумм, убедительная просьба с жалобами обращаться напрямую к пользователю. Файлы для обмена на трекере предоставлены пользователями сайта, и администрация не несёт ответственности за их содержание. Просьба не заливать файлы, защищенные авторскими правами, а также файлы нелегального содержания!


    _________________
    [Профиль] [ЛС]

    -746

    Создавать темы 03-Июн-2016 21:40 (спустя 6 месяцев 16 дней)

           

    Топік був перенесений з форуму Закордонне кіно українською у форум Фільми 2011-2015 українською

    rechyn

    _________________
    Как бы ты высоко не летал, не забывай, с кем ты ползал..
     
    Показать сообщения:    
    Ответить на тему

    Текущее время: Сегодня, в 03:25

    Часовой пояс: GMT + 2



    Вы не можете начинать темы
    Вы не можете отвечать на сообщения
    Вы не можете редактировать свои сообщения
    Вы не можете удалять свои сообщения
    Вы не можете голосовать в опросах
    Вы не можете прикреплять файлы к сообщениям
    Вы не можете скачивать файлы