BitTorrentTracker PerecTracker.org
BitTorrentTracker PerecTracker.org
    
Регистрация  ·  Вход
 
 · 
Забыли пароль?

  • Світ Юрського періоду / Jurassic World (Колін Треворров) [2015 Р., фантастика, пригоди, бойовик, BDRip 720p] DUB Ukr + Original + Sub Ukr, Eng

    Ответить на тему
     
    Автор Сообщение

    older

    Создавать темы 17-Ноя-2015 09:10

           

    [Цитировать]

    Світ Юрського періоду / Jurassic World

    Рік випуску: 2015
    Країна: США
    Кіностудія / кінокомпанія: Universal Pictures, Amblin Entertainment, Legendary Pictures
    Жанр: фантастика, пригоди, бойовик
    Тривалість: 02:04:21
    Субтитри: українські, англійська
    Переклад: дубльований (професійний) - Line In
    Аудіодоріжка: українська, англійська-Режисер: Колін Треворров
    Продюсер: Патрік Краулі, Френк Маршалл, Крістофер Раймо
    Сценарій: Рік Джаффа, Аманда Сільвер, Колін Треворроу-Світова прем'єра: 29 травня 2015
    Прем'єра в Україні: 11 червня 2015, «B & H Film Distribution Company»- -Актори: Кріс Претт / Chris Pratt, Брайс Даллас Говард / Bryce Dallas Howard, Вінсент Д`Онофріо / Vincent D'Onofrio, Нік Дж. Робінсон / Nick J. Robinson, Тай Сімпкінс / Ty Simpkins, Омар Сі / Omar Sy, Ірфан Кхан / Irfan Khan, Брайан Ті / Brian Tee, Джейк Джонсон / Jake Johnson, Б.Д. Вонґ / B.D. Wong, Джуді Ґрір / Judy Greer-Сюжет: Легендарний продюсер Стівен Спілберґ запрошує у Світ Юрського Періоду! Життя на загадковому острові Нублар вирує, і тисячі людей продовжують сюди приїжджати, щоб поринути у світ доісторичних тварин. Та коли інтерес потроху спадає, творці парку розваг дають життя новому видові істот, які викличуть небачений ажіотаж у відвідувачів. Несподівано дивовижний атракціон призводить до фатальних наслідків. Вибратися з острова-пастки вдасться не всім!-Формат: mkv
    Якість: BDRip 720p
    Відео кодек: H.264
    Відео: 1280x640 (2.000), 7885 kbps, 23.976 fps, 0.401 bit/pixel
    Аудіо 1: AC3, 48 kHz, 2 ch, 192 kbps - Line In
    Аудіо 2: AC3, 48 kHz, 6 ch, 448 kbps - Original
    Субтитри: українська, англійська тип: програмні (м'які) формат: srt-Джерело:

    MediaInfo

    Общее
    Уникальный идентификатор                 : 190054923212543728058266743239363016175 (0x8EFB3F2C46468F3084F124FE7F2035EF)
    Полное имя                               : \Jurassic World (2015) BDRip 720p [UKR_ENG] [Hurtom].mkv
    Формат                                   : Matroska
    Версия формата                           : Version 2
    Размер файла                             : 7,55 Гбайт
    Продолжительность                        : 2 ч. 4 м.
    Общий поток                              : 8698 Кбит/сек
    Дата кодирования                         : UTC 2015-09-27 12:04:49
    Программа кодирования                    : mkvmerge v5.7.0 ('The Whirlwind') built on Jul  8 2012 20:08:51
    Библиотека кодирования                   : libebml v1.2.3 + libmatroska v1.3.0
    Видео
    Идентификатор                            : 1
    Формат                                   : AVC
    Формат/Информация                        : Advanced Video Codec
    Профиль формата                          : High@L4.1
    Параметр CABAC формата                   : Да
    Параметр ReFrames формата                : 10 кадров
    Идентификатор кодека                     : V_MPEG4/ISO/AVC
    Продолжительность                        : 2 ч. 4 м.
    Битрейт                                  : 7885 Кбит/сек
    Ширина                                   : 1280 пикселей
    Высота                                   : 640 пикселей
    Соотношение сторон                       : 2,000
    Режим частоты кадров                     : Постоянный
    Частота кадров                           : 23,976 кадра/сек
    Цветовое пространство                    : YUV
    Субдискретизация насыщенности            : 4:2:0
    Битовая глубина                          : 8 бит
    Тип развёртки                            : Прогрессивная
    Бит/(Пиксели*Кадры)                      : 0.401
    Размер потока                            : 6,85 Гбайт (91%)
    Библиотека кодирования                   : x264 core 142 r2431+42 c69a006 tMod [8-bit@all X86_64]
    Настройки программы                      : cabac=1 / ref=10 / deblock=1:-3:-3 / analyse=0x3:0x133 / me=umh / subme=11 / psy=1 / fade_compensate=0.00 / psy_rd=1.05:1.00 / mixed_ref=1 / me_range=32 / chroma_me=1 / trellis=2 / 8x8dct=1 / cqm=0 / deadzone=21,11 / fast_pskip=0 / chroma_qp_offset=-4 / threads=6 / lookahead_threads=1 / sliced_threads=0 / nr=0 / decimate=0 / interlaced=0 / bluray_compat=0 / constrained_intra=0 / fgo=0 / bframes=8 / b_pyramid=2 / b_adapt=2 / b_bias=0 / direct=3 / weightb=1 / open_gop=0 / weightp=2 / keyint=240 / keyint_min=23 / scenecut=40 / intra_refresh=0 / rc_lookahead=60 / rc=crf / mbtree=0 / crf=18.0000 / qcomp=0.60 / qpmin=0:0:0 / qpmax=69:69:69 / qpstep=4 / vbv_maxrate=40000 / vbv_bufsize=30000 / crf_max=0.0 / nal_hrd=none / filler=0 / ip_ratio=1.40 / pb_ratio=1.30 / aq=1:1.00 / aq-sensitivity=10.00 / aq-factor=1.00:1.00:1.00 / aq2=0 / aq3=0
    Язык                                     : English
    Default                                  : Да
    Forced                                   : Нет
    Аудио #1
    Идентификатор                            : 2
    Формат                                   : AC-3
    Формат/Информация                        : Audio Coding 3
    Расширение режима                        : CM (complete main)
    Параметр Endianness формата              : Big
    Идентификатор кодека                     : A_AC3
    Продолжительность                        : 2 ч. 4 м.
    Вид битрейта                             : Постоянный
    Битрейт                                  : 192 Кбит/сек
    Каналы                                   : 2 канала
    Расположение каналов                     : Front: L R
    Частота                                  : 48,0 КГц
    Битовая глубина                          : 16 бит
    Метод сжатия                             : С потерями
    Размер потока                            : 171 Мбайт (2%)
    Заголовок                                : AC3 2.0 @ 192 kbps
    Язык                                     : Ukrainian
    Default                                  : Да
    Forced                                   : Да
    Аудио #2
    Идентификатор                            : 3
    Формат                                   : AC-3
    Формат/Информация                        : Audio Coding 3
    Расширение режима                        : CM (complete main)
    Параметр Endianness формата              : Big
    Идентификатор кодека                     : A_AC3
    Продолжительность                        : 2 ч. 4 м.
    Вид битрейта                             : Постоянный
    Битрейт                                  : 448 Кбит/сек
    Каналы                                   : 6 каналов
    Расположение каналов                     : Front: L C R, Side: L R, LFE
    Частота                                  : 48,0 КГц
    Битовая глубина                          : 16 бит
    Метод сжатия                             : С потерями
    Размер потока                            : 398 Мбайт (5%)
    Заголовок                                : AC3 5.1 @ 448 kbps
    Язык                                     : English
    Default                                  : Нет
    Forced                                   : Нет
    Текст #1
    Идентификатор                            : 4
    Формат                                   : UTF-8
    Идентификатор кодека                     : S_TEXT/UTF8
    Идентификатор кодека/Информация          : UTF-8 Plain Text
    Заголовок                                : Forced
    Язык                                     : Ukrainian
    Default                                  : Да
    Forced                                   : Да
    Текст #2
    Идентификатор                            : 5
    Формат                                   : UTF-8
    Идентификатор кодека                     : S_TEXT/UTF8
    Идентификатор кодека/Информация          : UTF-8 Plain Text
    Заголовок                                : Full
    Язык                                     : Ukrainian
    Default                                  : Нет
    Forced                                   : Нет
    Текст #3
    Идентификатор                            : 6
    Формат                                   : UTF-8
    Идентификатор кодека                     : S_TEXT/UTF8
    Идентификатор кодека/Информация          : UTF-8 Plain Text
    Заголовок                                : Full
    Язык                                     : English
    Default                                  : Нет
    Forced                                   : Нет
    Меню
    00:00:00.000                             : en:Chapter 01
    00:06:59.168                             : en:Chapter 02
    00:11:01.827                             : en:Chapter 03
    00:18:28.440                             : en:Chapter 04
    00:25:34.866                             : en:Chapter 05
    00:31:20.837                             : en:Chapter 06
    00:39:23.861                             : en:Chapter 07
    00:44:07.853                             : en:Chapter 08
    00:48:57.225                             : en:Chapter 09
    00:55:51.056                             : en:Chapter 10
    01:01:21.344                             : en:Chapter 11
    01:09:50.561                             : en:Chapter 12
    01:15:25.479                             : en:Chapter 13
    01:23:51.860                             : en:Chapter 14
    01:30:14.700                             : en:Chapter 15
    01:36:45.424                             : en:Chapter 16
    01:41:15.652                             : en:Chapter 17
    01:47:35.282                             : en:Chapter 18
    01:53:06.029                             : en:Chapter 19
    01:55:37.555                             : en:Chapter 20
    02:04:20.870                             : en:Chapter 21

    Скріншоти

    Скачать .torrent

    Скачать торрент-файл бесплатно и на максимальной скорости!

    Как скачивать? · Что такое торрент? · Рейтинг и ограничения

    !ВНИМАНИЕ!
    Сайт не распространяет и не хранит электронные версии произведений, а занимается лишь лишь предоставлением доступа к создаваемому пользователями каталогу ссылок на торрент-файлы, которые содержат только списки хеш-сумм, убедительная просьба с жалобами обращаться напрямую к пользователю. Файлы для обмена на трекере предоставлены пользователями сайта, и администрация не несёт ответственности за их содержание. Просьба не заливать файлы, защищенные авторскими правами, а также файлы нелегального содержания!


    _________________
    [Профиль] [ЛС]
    Показать сообщения:    
    Ответить на тему

    Текущее время: Сегодня, в 08:53

    Часовой пояс: GMT + 2



    Вы не можете начинать темы
    Вы не можете отвечать на сообщения
    Вы не можете редактировать свои сообщения
    Вы не можете удалять свои сообщения
    Вы не можете голосовать в опросах
    Вы не можете прикреплять файлы к сообщениям
    Вы не можете скачивать файлы