BitTorrentTracker PerecTracker.org
BitTorrentTracker PerecTracker.org
    
Регистрация  ·  Вход
 
 · 
Забыли пароль?

  • Паперові міста / Paper Towns (Джейк Шреєр) [2015 р., мелодрама, детектив, комедія, BDRip-AVC] DUB Ukr + Sub Ukr, Eng

    Ответить на тему
     
    Автор Сообщение

    older

    Создавать темы 17-Ноя-2015 07:34

           

    [Цитировать]

    Паперові міста / Paper Towns

    Рік випуску: 2015
    Країна: США
    Кіностудія / кінокомпанія: Fox 2000 Pictures, Temple Hill Entertainment
    Жанр: мелодрама, детектив, комедія
    Тривалість: 01:49:05
    Субтитри: українські, англійські
    Переклад: дубльований (професійний)
    Аудіодоріжка: українська-Режисер: Джейк Шреєр
    Продюсер: Марті Бауен, Вік Годфрі, Джон Грін
    Сценарій: Джон Грін, Скотт Нейстадтер, Майкл Х. Уебер-Світова прем'єра: 18 червня 2015
    Прем'єра в Україні: 23 липня 2015, «Ukrainian Film Distribution»- -Актори: Нат Вульф / Nat Wolff, Кара Делавінь / Cara Delevingne, Остін Абрамс / Austin Abrams, Джастіс Сміт / Justice Smith, Гельстон Сейдж / Halston Sage, Джез Сінклейр / Jaz Sinclair, Кара Буоно / Cara Buono, Ганна Аліґуд / Hannah Alligood, Меґ Ґросбі / Meg Crosbie-Сюжет: Випускник школи К'ю Джейкобсен з дитячих років таємно закоханий у свою прекрасну і зухвалу сусідку Марґо Рот Шпіґельман. Тому, коли одного разу вночі вона запрошує його взяти участь у «каральній операції» проти її кривдників, він погоджується. Але, прийшовши в школу після нічної пригоди, Кью дізнається, що Марґо зникла... залишивши для нього лише таємничі послання, які він повинен розгадати, щоб знайти дівчину.-Формат: mkv
    Якість: BDRip-AVC
    Відео кодек: H.264
    Відео: 1024х424 (2,40:1), 1956 kbps, 23.976 fps, 0.188 bit/pixel
    Аудіо: AC3, 48 kHz, 6 ch, 448 kbps
    Субтитри: українська, англійська тип: програмні (м'які) формат: srt-Джерело:

    MediaInfo

    Общее
    Уникальный идентификатор                 : 185104512205100244145121329764475824181 (0x8B41D510F010351C82FDA9D9D4676835)
    Полное имя                               : \Paper Towns (2015) BDRip-AVC [UKR] [Hurtom].mkv
    Формат                                   : Matroska
    Версия формата                           : Version 2
    Размер файла                             : 1,87 Гбайт
    Продолжительность                        : 1 ч. 49 м.
    Общий поток                              : 2453 Кбит/сек
    Дата кодирования                         : UTC 2015-11-08 16:41:53
    Программа кодирования                    : mkvmerge v5.7.0 ('The Whirlwind') built on Jul  8 2012 20:08:51
    Библиотека кодирования                   : libebml v1.2.3 + libmatroska v1.3.0
    Видео
    Идентификатор                            : 1
    Формат                                   : AVC
    Формат/Информация                        : Advanced Video Codec
    Профиль формата                          : High@L4.1
    Параметр CABAC формата                   : Да
    Параметр ReFrames формата                : 11 кадров
    Идентификатор кодека                     : V_MPEG4/ISO/AVC
    Продолжительность                        : 1 ч. 49 м.
    Битрейт                                  : 1956 Кбит/сек
    Ширина                                   : 1024 пикселя
    Высота                                   : 424 пикселя
    Соотношение сторон                       : 2,40:1
    Режим частоты кадров                     : Постоянный
    Частота кадров                           : 23,976 кадра/сек
    Цветовое пространство                    : YUV
    Субдискретизация насыщенности            : 4:2:0
    Битовая глубина                          : 8 бит
    Тип развёртки                            : Прогрессивная
    Бит/(Пиксели*Кадры)                      : 0.188
    Размер потока                            : 1,49 Гбайт (80%)
    Библиотека кодирования                   : x264 core 142 r2431 ac76440
    Настройки программы                      : cabac=1 / ref=11 / deblock=1:-1:-1 / analyse=0x3:0x113 / me=umh / subme=11 / psy=1 / psy_rd=1.00:0.15 / mixed_ref=1 / me_range=32 / chroma_me=1 / trellis=2 / 8x8dct=1 / cqm=0 / deadzone=21,11 / fast_pskip=0 / chroma_qp_offset=-5 / threads=12 / lookahead_threads=3 / sliced_threads=0 / nr=0 / decimate=1 / interlaced=0 / bluray_compat=0 / constrained_intra=0 / bframes=12 / b_pyramid=2 / b_adapt=2 / b_bias=0 / direct=1 / weightb=1 / open_gop=0 / weightp=2 / keyint=240 / keyint_min=23 / scenecut=40 / intra_refresh=0 / rc_lookahead=60 / rc=crf / mbtree=1 / crf=14.5 / qcomp=0.60 / qpmin=10 / qpmax=69 / qpstep=4 / vbv_maxrate=50000 / vbv_bufsize=62500 / crf_max=0.0 / nal_hrd=none / filler=0 / ip_ratio=1.40 / aq=1:1.00
    Язык                                     : English
    Default                                  : Да
    Forced                                   : Нет
    Аудио
    Идентификатор                            : 2
    Формат                                   : AC-3
    Формат/Информация                        : Audio Coding 3
    Расширение режима                        : CM (complete main)
    Параметр Endianness формата              : Big
    Идентификатор кодека                     : A_AC3
    Продолжительность                        : 1 ч. 49 м.
    Вид битрейта                             : Постоянный
    Битрейт                                  : 448 Кбит/сек
    Каналы                                   : 6 каналов
    Расположение каналов                     : Front: L C R, Side: L R, LFE
    Частота                                  : 48,0 КГц
    Битовая глубина                          : 16 бит
    Метод сжатия                             : С потерями
    Размер потока                            : 350 Мбайт (18%)
    Заголовок                                : AC3 5.1 @ 448 kbps
    Язык                                     : Ukrainian
    Default                                  : Да
    Forced                                   : Да
    Текст #1
    Идентификатор                            : 3
    Формат                                   : UTF-8
    Идентификатор кодека                     : S_TEXT/UTF8
    Идентификатор кодека/Информация          : UTF-8 Plain Text
    Заголовок                                : Forced
    Язык                                     : Ukrainian
    Default                                  : Да
    Forced                                   : Да
    Текст #2
    Идентификатор                            : 4
    Формат                                   : UTF-8
    Идентификатор кодека                     : S_TEXT/UTF8
    Идентификатор кодека/Информация          : UTF-8 Plain Text
    Заголовок                                : Full
    Язык                                     : Ukrainian
    Default                                  : Нет
    Forced                                   : Нет
    Текст #3
    Идентификатор                            : 5
    Формат                                   : UTF-8
    Идентификатор кодека                     : S_TEXT/UTF8
    Идентификатор кодека/Информация          : UTF-8 Plain Text
    Заголовок                                : Full
    Язык                                     : English
    Default                                  : Нет
    Forced                                   : Нет

    Скріншоти

    Скачать .torrent

    Скачать торрент-файл бесплатно и на максимальной скорости!

    Как скачивать? · Что такое торрент? · Рейтинг и ограничения

    !ВНИМАНИЕ!
    Сайт не распространяет и не хранит электронные версии произведений, а занимается лишь лишь предоставлением доступа к создаваемому пользователями каталогу ссылок на торрент-файлы, которые содержат только списки хеш-сумм, убедительная просьба с жалобами обращаться напрямую к пользователю. Файлы для обмена на трекере предоставлены пользователями сайта, и администрация не несёт ответственности за их содержание. Просьба не заливать файлы, защищенные авторскими правами, а также файлы нелегального содержания!


    _________________
    [Профиль] [ЛС]
    Показать сообщения:    
    Ответить на тему

    Текущее время: Сегодня, в 23:21

    Часовой пояс: GMT + 2



    Вы не можете начинать темы
    Вы не можете отвечать на сообщения
    Вы не можете редактировать свои сообщения
    Вы не можете удалять свои сообщения
    Вы не можете голосовать в опросах
    Вы не можете прикреплять файлы к сообщениям
    Вы не можете скачивать файлы