BitTorrentTracker PerecTracker.org
BitTorrentTracker PerecTracker.org
    
Регистрация  ·  Вход
 
 · 
Забыли пароль?

  • Робот Чаппі / Chappie (Ніл Бломкемп) [2015 р., фантастика, бойовик, трилер, кримінал, BDRip] DUB (LeDoyen) Ukr + Original

    Ответить на тему
     
    Автор Сообщение

    older

    Создавать темы 16-Ноя-2015 19:19

           

    [Цитировать]

    Робот Чаппі / Chappie

    Рік випуску: 2015
    Країна: США , Мексика
    Кіностудія / кінокомпанія: Columbia Pictures, Media Rights Capital, LStar Capital
    Жанр: фантастика, бойовик, трилер, кримінал
    Тривалість: 02:00:19
    Субтитри: відсутні
    Переклад: дубльований (професійний) - LeDoyen на замовлення компанії B&H Film Distribution
    Аудіодоріжка: українська, англійська-Режисер: Ніл Бломкемп
    Продюсер: Ніл Бломкамп, Саймон Кінберг, Джеймс Бітонто
    Сценарій: Ніл Бломкамп, Террі Татчелл-Світова прем'єра: 4 березня 2015
    Прем'єра в Україні: 12 березня 2015, «B & H Film Distribution Company»
    Обмеження за віком: 18+- -Актори: Шарлто Коплі, Дев Патель, Йоланда Фіссер, Хосе Пабло Кантільйо, Г’ю Джекмен, Сіґурні Вівер, Брендон Оре, Джонні Селема, Андерсон Купер-Сюжет: Чаппі - вундеркінд. Як і будь-яка інша дитина, він потрапляє під вплив свого оточення, і тільки його серце і душа допоможуть йому знайти свій шлях. Але є одна річ, яка робить Чаппі несхожим на всіх інших: він - перший робот, здатний відчувати і думати.-Формат: AVI
    Якість: BDRip
    Відео кодек: XviD
    Відео: 720x304 (2,35:1), 1746 kbps, 23.976 fps, 0.333 bit/pixel
    Аудіо 1: AC3, 48 kHz, 6 ch, 448 kbps - LeDoyen
    Аудіо 2: AC3, 48 kHz, 6 ch, 384 kbps - Original-Джерело:

    Реліз

    Переклад: Олега Пашина
    Режисер дубляжу: Іван Марченко
    Звукорежисер: Альона Шеменович
    Звукорежисер перезапису: Олена Лапіна
    Координатор проекту: Аліна Гаєвська
    Ролі дублювали: Володимир Канівець, Ганна Кузіна, Дмитро Завадський, Михайло Федорченко, Михайло Жонін, Андрій Самінін, Лариса Руснак, Михайло Кукуюк.-Фільм надано компанією Columbia Pictures. Дубльовано студію LeDoyen на замовлення компанії B&H Film Distribution. Зміксовано студією LeDoyen.

    MediaInfo

    Общее
    Полное имя                               : \Chappie (2015) BDRip [ukr, eng] [Hurtom].avi
    Формат                                   : AVI
    Формат/Информация                        : Audio Video Interleave
    Профиль формата                          : OpenDML
    Размер файла                             : 2,18 Гбайт
    Продолжительность                        : 2 ч. 0 м.
    Общий поток                              : 2595 Кбит/сек
    Программа кодирования                    : VirtualDubModUkr 1.5.10.2 (build 2542/release)
    Библиотека кодирования                   : VirtualDubMod build 2542/release
    Видео
    Идентификатор                            : 0
    Формат                                   : MPEG-4 Visual
    Профиль формата                          : Advanced Simple@L5
    Параметр BVOP формата                    : 2
    Параметр QPel формата                    : Нет
    Параметр GMC формата                     : Без точки перехода
    Параметр матрицы формата                 : Default (MPEG)
    Идентификатор кодека                     : XVID
    Идентификатор кодека/Подсказка           : XviD
    Продолжительность                        : 2 ч. 0 м.
    Битрейт                                  : 1746 Кбит/сек
    Ширина                                   : 720 пикселей
    Высота                                   : 304 пикселя
    Соотношение сторон                       : 2,35:1
    Частота кадров                           : 23,976 кадра/сек
    Цветовое пространство                    : YUV
    Субдискретизация насыщенности            : 4:2:0
    Битовая глубина                          : 8 бит
    Тип развёртки                            : Прогрессивная
    Метод сжатия                             : С потерями
    Бит/(Пиксели*Кадры)                      : 0.333
    Размер потока                            : 1,47 Гбайт (67%)
    Библиотека кодирования                   : XviD 1.2.1 (UTC 2008-12-04)
    Аудио #1
    Идентификатор                            : 1
    Формат                                   : AC-3
    Формат/Информация                        : Audio Coding 3
    Расширение режима                        : CM (complete main)
    Параметр Endianness формата              : Big
    Идентификатор кодека                     : 2000
    Продолжительность                        : 2 ч. 0 м.
    Вид битрейта                             : Постоянный
    Битрейт                                  : 448 Кбит/сек
    Каналы                                   : 6 каналов
    Расположение каналов                     : Front: L C R, Side: L R, LFE
    Частота                                  : 48,0 КГц
    Битовая глубина                          : 16 бит
    Метод сжатия                             : С потерями
    Размер потока                            : 386 Мбайт (17%)
    Выравнивание                             : Разделение по промежуткам
    Продолжительность промежутка             : 42  мс. (1,00 видеокадр)
    Время предзагрузки промежутка            : 500  мс.
    Аудио #2
    Идентификатор                            : 2
    Формат                                   : AC-3
    Формат/Информация                        : Audio Coding 3
    Расширение режима                        : CM (complete main)
    Параметр Endianness формата              : Big
    Идентификатор кодека                     : 2000
    Продолжительность                        : 2 ч. 0 м.
    Вид битрейта                             : Постоянный
    Битрейт                                  : 384 Кбит/сек
    Каналы                                   : 6 каналов
    Расположение каналов                     : Front: L C R, Side: L R, LFE
    Частота                                  : 48,0 КГц
    Битовая глубина                          : 16 бит
    Метод сжатия                             : С потерями
    Размер потока                            : 330 Мбайт (15%)
    Выравнивание                             : Разделение по промежуткам
    Продолжительность промежутка             : 42  мс. (1,00 видеокадр)
    Время предзагрузки промежутка            : 500  мс.

    Скріншоти

    Скачать .torrent

    Скачать торрент-файл бесплатно и на максимальной скорости!

    Как скачивать? · Что такое торрент? · Рейтинг и ограничения

    !ВНИМАНИЕ!
    Сайт не распространяет и не хранит электронные версии произведений, а занимается лишь лишь предоставлением доступа к создаваемому пользователями каталогу ссылок на торрент-файлы, которые содержат только списки хеш-сумм, убедительная просьба с жалобами обращаться напрямую к пользователю. Файлы для обмена на трекере предоставлены пользователями сайта, и администрация не несёт ответственности за их содержание. Просьба не заливать файлы, защищенные авторскими правами, а также файлы нелегального содержания!


    _________________
    [Профиль] [ЛС]
    Показать сообщения:    
    Ответить на тему

    Текущее время: Сегодня, в 09:51

    Часовой пояс: GMT + 2



    Вы не можете начинать темы
    Вы не можете отвечать на сообщения
    Вы не можете редактировать свои сообщения
    Вы не можете удалять свои сообщения
    Вы не можете голосовать в опросах
    Вы не можете прикреплять файлы к сообщениям
    Вы не можете скачивать файлы