BitTorrentTracker PerecTracker.org
BitTorrentTracker PerecTracker.org
    
Регистрация  ·  Вход
 
 · 
Забыли пароль?

  • Паразит: Часть 1 / Parasite: Part 1 / Kiseijû: Part 1 (Такаси Ямадзаки / Takashi Yamazaki) [2014, Япония, ужасы, фантастика,WEB-DLRip] DVO (DeadSno & den904)

    Ответить на тему
     
    Автор Сообщение

    rechyn

    Создавать темы 16-Ноя-2015 19:00

           

    [Цитировать]

    Паразит: Часть 1 / Parasite: Part 1 / Kiseijы: Part 1--Страна: Япония
    Жанр: ужасы, фантастика
    Год выпуска: 2014
    Продолжительность: 01:49:52-Перевод: Любительский (двухголосый закадровый) [DeadSno & den904]-Cубтитры: нет
    Оригинальная аудиодорожка: нет
    Режиссер: Такаси Ямадзаки / Takashi Yamazaki
    В ролях: Сёта Сомэтани, Эри Фукацу, Аи Хашимото, Кадзуки Китамура, Масахиро Хигасидэ, Таданобу Асано, Мико Ёки, Дзюн Кунимура, Хирофуми Арай, Пьер Таки...
    Описание: Паразиты… Создания, живущие за счёт своего носителя, обладают совершенно нечеловеческой силой. Посланные небом должны проникать в мозг человека для полной власти над носителем. Но кому как повезёт… Именно эта неудача одного паразита спасает жизнь школьника Изуми Шиничи, живущего обычной жизнью. Но и эта же неудача делает его носителем этого загадочного существа, обрекая Шиничи на постоянную борьбу за выживание с другими, более сильными паразитами.

    Релиз от - &
    Семпл: http://multi-up.com/1047661
    Качество видео: WEB-DLRip
    Формат видео: AVI
    Видео: MPEG-4 Visual at 1652 Кбит/сек; 720 x 304 (2.368) at 23.976 fps
    Аудио: AC-3 at 192 Кбит/сек; 2 канала, 48,0 КГц
    Автор -

    MediaInfo

    Общее
    Полное имя : D:\Фильмы\Азиатские\Паразит\Parasite.Part 1.2014.WEB-DLRip.1400MB. rip by [Assassin's Creed].avi
    Формат : AVI
    Формат/Информация : Audio Video Interleave
    Размер файла : 1,42 Гбайт
    Продолжительность : 1 ч. 49 м.
    Общий поток : 1854 Кбит/сек
    Программа кодирования : VirtualDubMod 1.5.10.3 | www.virtualdub-fr.org || (build 2550/release)
    Библиотека кодирования : VirtualDubMod build 2550/release
    Видео
    Идентификатор : 0
    Формат : MPEG-4 Visual
    Профиль формата : Advanced Simple@L5
    Параметр BVOP формата : 1
    Параметр QPel формата : Нет
    Параметр GMC формата : Без точки перехода
    Параметр матрицы формата : Default (MPEG)
    Идентификатор кодека : XVID
    Идентификатор кодека/Подсказка : XviD
    Продолжительность : 1 ч. 49 м.
    Битрейт : 1652 Кбит/сек
    Ширина : 720 пикселей
    Высота : 304 пикселя
    Соотношение сторон : 2,35:1
    Частота кадров : 23,976 кадра/сек
    Цветовое пространство : YUV
    Субдискретизация насыщенности : 4:2:0
    Битовая глубина : 8 бит
    Тип развёртки : Прогрессивная
    Метод сжатия : С потерями
    Бит/(Пиксели*Кадры) : 0.315
    Размер потока : 1,27 Гбайт (89%)
    Библиотека кодирования : XviD 1.2.1 (UTC 2008-12-04)
    Аудио
    Идентификатор : 1
    Формат : AC-3
    Формат/Информация : Audio Coding 3
    Расширение режима : CM (complete main)
    Параметр Endianness формата : Big
    Идентификатор кодека : 2000
    Продолжительность : 1 ч. 49 м.
    Вид битрейта : Постоянный
    Битрейт : 192 Кбит/сек
    Каналы : 2 канала
    Расположение каналов : Front: L R
    Частота : 48,0 КГц
    Битовая глубина : 16 бит
    Метод сжатия : С потерями
    Размер потока : 151 Мбайт (10%)
    Выравнивание : Разделение по промежуткам
    Продолжительность промежутка : 42 мс. (1,00 видеокадр)
    Время предзагрузки промежутка : 500 мс.

    Скриншот c названием фильма

    Скриншоты

    Скачать .torrent

    Скачать торрент-файл бесплатно и на максимальной скорости!

    Как скачивать? · Что такое торрент? · Рейтинг и ограничения

    !ВНИМАНИЕ!
    Сайт не распространяет и не хранит электронные версии произведений, а занимается лишь лишь предоставлением доступа к создаваемому пользователями каталогу ссылок на торрент-файлы, которые содержат только списки хеш-сумм, убедительная просьба с жалобами обращаться напрямую к пользователю. Файлы для обмена на трекере предоставлены пользователями сайта, и администрация не несёт ответственности за их содержание. Просьба не заливать файлы, защищенные авторскими правами, а также файлы нелегального содержания!


    _________________
    [Профиль] [ЛС]
    Показать сообщения:    
    Ответить на тему

    Текущее время: Сегодня, в 03:12

    Часовой пояс: GMT + 2



    Вы не можете начинать темы
    Вы не можете отвечать на сообщения
    Вы не можете редактировать свои сообщения
    Вы не можете удалять свои сообщения
    Вы не можете голосовать в опросах
    Вы не можете прикреплять файлы к сообщениям
    Вы не можете скачивать файлы