BitTorrentTracker PerecTracker.org
BitTorrentTracker PerecTracker.org
    
Регистрация  ·  Вход
 
 · 
Забыли пароль?

  • Дівчина без комплексів / Trainwreck (Джудд Апатов) [2015 р., мелодрама, комедія, BDRip] MVO Ukr

    Ответить на тему
     
    Автор Сообщение

    older

    Создавать темы 16-Ноя-2015 10:05

           

    [Цитировать]

    Дівчина без комплексів / Trainwreck

    Рік випуску: 2015
    Країна: США
    Кіностудія / кінокомпанія: Apatow Productions, Universal Pictures
    Жанр: мелодрама, комедія
    Тривалість: 02:04:45
    Субтитри: відсутні
    Переклад: багатоголосий, закадровий (професійний) - Line In
    Аудіодоріжка: українська-Режисер: Джудд Апатов
    Продюсер: Джудд Апатоу, Беррі Мендел, Кім Карамель
    Сценарій: Емі Шумер-Світова прем'єра: 16 березня 2015
    Прем'єра в Україні: 20 серпня 2015
    Обмеження за віком: 18+- -Актори: Емі Бет Шумер / Amy Beth Schumer, Колін Квінн / Colin Quinn, Девін Фабрі / Devin Fabry, Карла Оудін / Carla Oudin, Джош Сеґарра / Josh Segarra, Раян Фаррелл / Ryan Farrell, Роберт Е. Торрес / Robert E. Torres, Джим Флорентайн / Jim Florentine, Боббі Келлі / Bobby Kelly, Джон Сіна / John Cena-Сюжет: Еммі в дитинстві дізналася від батька, що моногамії не існує. Коли вона виросла, то стала поводитися як дівчина з вільними поглядами на відносини і життя. Еммі працює журналістом і живе вірою в те, що шлюб - це нудно і нецікаво, і він веде до рутинного існування. Отримавши нове завдання на роботі, Еммі знайомиться з чарівним і веселим чоловіком - спортивним лікарем Аароном Коннерсом. Відбувається дивна на її думку річ, після чудової ночі хлопець дзвонить, щоб знову побачити її. Еммі починає замислюватися над тим, наскільки правий був її батько...-Формат: AVI
    Якість: BDRip
    Відео кодек: XviD
    Відео: 720x304 (2,35:1), 1470 kbps, 23.976 fps, 0.280 bit/pixel
    Аудіо: AC3, 48 kHz, 2 ch, 192 kbps-Джерело:

    MediaInfo

    Общее
    Полное имя                               : \Trainwreck (2015) BDRip [UKR] [Hurtom].avi
    Формат                                   : AVI
    Формат/Информация                        : Audio Video Interleave
    Размер файла                             : 1,46 Гбайт
    Продолжительность                        : 2 ч. 4 м.
    Общий поток                              : 1671 Кбит/сек
    Программа кодирования                    : VirtualDubMod 1.5.10.2 (build 2540/release)
    Библиотека кодирования                   : VirtualDubMod build 2540/release
    Видео
    Идентификатор                            : 0
    Формат                                   : MPEG-4 Visual
    Профиль формата                          : Advanced Simple@L5
    Параметр BVOP формата                    : 1
    Параметр QPel формата                    : Нет
    Параметр GMC формата                     : Без точки перехода
    Параметр матрицы формата                 : Выборочная
    Идентификатор кодека                     : XVID
    Идентификатор кодека/Подсказка           : XviD
    Продолжительность                        : 2 ч. 4 м.
    Битрейт                                  : 1470 Кбит/сек
    Ширина                                   : 720 пикселей
    Высота                                   : 304 пикселя
    Соотношение сторон                       : 2,35:1
    Частота кадров                           : 23,976 кадра/сек
    Цветовое пространство                    : YUV
    Субдискретизация насыщенности            : 4:2:0
    Битовая глубина                          : 8 бит
    Тип развёртки                            : Прогрессивная
    Метод сжатия                             : С потерями
    Бит/(Пиксели*Кадры)                      : 0.280
    Размер потока                            : 1,28 Гбайт (88%)
    Библиотека кодирования                   : XviD 73
    Аудио
    Идентификатор                            : 1
    Формат                                   : AC-3
    Формат/Информация                        : Audio Coding 3
    Расширение режима                        : CM (complete main)
    Параметр Endianness формата              : Big
    Идентификатор кодека                     : 2000
    Продолжительность                        : 2 ч. 4 м.
    Вид битрейта                             : Постоянный
    Битрейт                                  : 192 Кбит/сек
    Каналы                                   : 2 канала
    Расположение каналов                     : Front: L R
    Частота                                  : 48,0 КГц
    Битовая глубина                          : 16 бит
    Метод сжатия                             : С потерями
    Размер потока                            : 171 Мбайт (11%)
    Выравнивание                             : Разделение по промежуткам
    Продолжительность промежутка             : 42  мс. (1,00 видеокадр)
    Время предзагрузки промежутка            : 500  мс.

    Скріншоти

    Скачать .torrent

    Скачать торрент-файл бесплатно и на максимальной скорости!

    Как скачивать? · Что такое торрент? · Рейтинг и ограничения

    !ВНИМАНИЕ!
    Сайт не распространяет и не хранит электронные версии произведений, а занимается лишь лишь предоставлением доступа к создаваемому пользователями каталогу ссылок на торрент-файлы, которые содержат только списки хеш-сумм, убедительная просьба с жалобами обращаться напрямую к пользователю. Файлы для обмена на трекере предоставлены пользователями сайта, и администрация не несёт ответственности за их содержание. Просьба не заливать файлы, защищенные авторскими правами, а также файлы нелегального содержания!


    _________________
    [Профиль] [ЛС]
    Показать сообщения:    
    Ответить на тему

    Текущее время: Сегодня, в 22:22

    Часовой пояс: GMT + 2



    Вы не можете начинать темы
    Вы не можете отвечать на сообщения
    Вы не можете редактировать свои сообщения
    Вы не можете удалять свои сообщения
    Вы не можете голосовать в опросах
    Вы не можете прикреплять файлы к сообщениям
    Вы не можете скачивать файлы