BitTorrentTracker PerecTracker.org
BitTorrentTracker PerecTracker.org
    
Регистрация  ·  Вход
 
 · 
Забыли пароль?

  • Голгофа / Calvary (Джон Майкл Мак-Донаґ) [2014 р., драма, BDRip] MVO (НЛО.TV) Ukr

    Ответить на тему
     
    Автор Сообщение

    older

    Создавать темы 16-Ноя-2015 09:33

           

    [Цитировать]

    Голгофа / Calvary

    Рік випуску: 2014
    Країна: Ірландія , Великобританія
    Кіностудія / кінокомпанія: Fox Searchlight Pictures, Bord Scannan na hEireann / Irish Film Board, BFI
    Жанр: драма
    Тривалість: 01:41:30
    Субтитри: відсутні
    Переклад: багатоголосий, закадровий - НЛО.TV
    Аудіодоріжка: українська-Режисер: Джон Майкл Мак-Донаґ (John Michael McDonagh)
    Продюсер: Кріс Кларк, Флора Фернандес-Маренго, Джеймс Флінн
    Сценарій: Джон Майкл Мак-Донаґ-Світова прем'єра: 19 січня 2014
    Прем'єра в Україні: 1 травня 2014- -Актори: Брендан Ґлісон (Brendan Gleeson), Кріс О’Дауд (Chris O'Dowd), Келлі Райллі (Kelly Reilly), Ейден Ґіллен (Aidan Gillen), Ділан Моран (Dylan Moran), Ісаак де Банколе (Isaach De Bankolé), М. Еммет Волш (M. Emmet Walsh), Марі-Жозе Кроз (Marie-Josée Croze), Доналл Ґлісон (Domhnall Gleeson), Девід Вілмот (David Wilmot), Пет Шортт (Pat Shortt), Ґері Лайдон (Gary Lydon), Кілліан Скотт (Killian Scott), Орла О’Рурк (Orla O'Rourke), Овен Шарп (Owen Sharpe)-Сюжет: На початку фільму невидимий хтось на сповіді повідомляє отцю Джеймсу, що має намір убити його рівно за тиждень. День за днем ми спостерігаємо за тим, як панотець Джеймс виконує свої буденні обов'язки священика, намагаючись урятувати грішні душі зі своєї пастви, де багато-хто, якщо не кожен, може виявитися майбутнім убивцею.-Формат: AVI
    Якість: BDRip
    Відео кодек: XviD
    Відео: 720х304 (2,35:1), 1845 kbps, 24.000 fps, 0.351 bit/pixel
    Аудіо: AC3, 48 kHz, 2 ch, 192 kbps-Джерело:

    MediaInfo

    Общее
    Полное имя                               : \Calvary (2014) BDRip [UKR] [Hurtom].avi
    Формат                                   : AVI
    Формат/Информация                        : Audio Video Interleave
    Размер файла                             : 1,45 Гбайт
    Продолжительность                        : 1 ч. 41 м.
    Общий поток                              : 2046 Кбит/сек
    Программа кодирования                    : VirtualDubMod 1.5.10.2 (build 2540/release)
    Библиотека кодирования                   : VirtualDubMod build 2540/release
    Видео
    Идентификатор                            : 0
    Формат                                   : MPEG-4 Visual
    Профиль формата                          : Advanced Simple@L5
    Параметр BVOP формата                    : 1
    Параметр QPel формата                    : Нет
    Параметр GMC формата                     : Без точки перехода
    Параметр матрицы формата                 : Выборочная
    Идентификатор кодека                     : XVID
    Идентификатор кодека/Подсказка           : XviD
    Продолжительность                        : 1 ч. 41 м.
    Битрейт                                  : 1845 Кбит/сек
    Ширина                                   : 720 пикселей
    Высота                                   : 304 пикселя
    Соотношение сторон                       : 2,35:1
    Частота кадров                           : 24,000 кадра/сек
    Цветовое пространство                    : YUV
    Субдискретизация насыщенности            : 4:2:0
    Битовая глубина                          : 8 бит
    Тип развёртки                            : Прогрессивная
    Метод сжатия                             : С потерями
    Бит/(Пиксели*Кадры)                      : 0.351
    Размер потока                            : 1,31 Гбайт (90%)
    Библиотека кодирования                   : XviD 73
    Аудио
    Идентификатор                            : 1
    Формат                                   : AC-3
    Формат/Информация                        : Audio Coding 3
    Расширение режима                        : CM (complete main)
    Параметр Endianness формата              : Big
    Идентификатор кодека                     : 2000
    Продолжительность                        : 1 ч. 41 м.
    Вид битрейта                             : Постоянный
    Битрейт                                  : 192 Кбит/сек
    Каналы                                   : 2 канала
    Расположение каналов                     : Front: L R
    Частота                                  : 48,0 КГц
    Битовая глубина                          : 16 бит
    Метод сжатия                             : С потерями
    Размер потока                            : 139 Мбайт (9%)
    Выравнивание                             : Разделение по промежуткам
    Продолжительность промежутка             : 42  мс. (1,00 видеокадр)
    Время предзагрузки промежутка            : 500  мс.

    Скріншоти

    Скачать .torrent

    Скачать торрент-файл бесплатно и на максимальной скорости!

    Как скачивать? · Что такое торрент? · Рейтинг и ограничения

    !ВНИМАНИЕ!
    Сайт не распространяет и не хранит электронные версии произведений, а занимается лишь лишь предоставлением доступа к создаваемому пользователями каталогу ссылок на торрент-файлы, которые содержат только списки хеш-сумм, убедительная просьба с жалобами обращаться напрямую к пользователю. Файлы для обмена на трекере предоставлены пользователями сайта, и администрация не несёт ответственности за их содержание. Просьба не заливать файлы, защищенные авторскими правами, а также файлы нелегального содержания!


    _________________
    [Профиль] [ЛС]

    -746

    Создавать темы 03-Июн-2016 21:40 (спустя 6 месяцев 17 дней)

           

    Топік був перенесений з форуму Закордонне кіно українською у форум Фільми 2011-2015 українською

    rechyn

    _________________
    Как бы ты высоко не летал, не забывай, с кем ты ползал..
     
    Показать сообщения:    
    Ответить на тему

    Текущее время: Сегодня, в 20:49

    Часовой пояс: GMT + 2



    Вы не можете начинать темы
    Вы не можете отвечать на сообщения
    Вы не можете редактировать свои сообщения
    Вы не можете удалять свои сообщения
    Вы не можете голосовать в опросах
    Вы не можете прикреплять файлы к сообщениям
    Вы не можете скачивать файлы