BitTorrentTracker PerecTracker.org
BitTorrentTracker PerecTracker.org
    
Регистрация  ·  Вход
 
 · 
Забыли пароль?

  • Ультраамериканці / American Ultra (Німа Нурізаде) [2015 р., бойовик, комедія, BDRip] MVO Ukr

    Ответить на тему
     
    Автор Сообщение

    older

    Создавать темы 16-Ноя-2015 08:28

           

    [Цитировать]

    Ультраамериканці / American Ultra

    Рік випуску: 2015
    Країна: США
    Кіностудія / кінокомпанія: PalmStar Media, Bridge Finance Company, The Circle of Confusion
    Жанр: бойовик, комедія
    Тривалість: 01:35:41
    Субтитри: відсутні
    Переклад: багатоголосий, закадровий - Line In
    Аудіодоріжка: українська-Режисер: Німа Нурізаде
    Продюсер: Девід Елперт, Ентоні Брегман, Кевін Скотт Фрейкс
    Сценарій: Макс Лендіс-Світова прем'єра: 19 серпня 2015
    Прем'єра в Україні: 27 серпня 2015
    Обмеження за віком: 18+- -Актори: Джессі Айзенберґ / Jesse Eisenberg, Крістен Стюарт / Kristen Stewart, Тофер Ґрейс / Topher Grace, Моніка Ґандертон / Monique Ganderton, Волтон Ґоґінс / Walton Goggins, Конні Бріттон / Connie Britton, Джон Леґуізамо / John Leguizamo, Білл Пуллман / Bill Pullman, Неш Едґертон / Nash Edgerton, Тоні Гейл / Tony Hale-Сюжет: З вигляду Майк — ледакуватий невмотивований споживач маріхуани, що живе в маленькому містечку зі своєю дівчиною Фібі. Раптово його життя перевертається з ніг на голову. Без відома йому, Майк насправді добре навчений смертоносний сплячий агент. В одну мить його таємне минуле повертається, щоб переслідувати його. Майк опиняється у центрі смертельної урядової операції, і, щоб вижити, він змушений викликати свого внутрішнього героя...-Формат: AVI
    Якість: BDRip
    Відео кодек: XviD
    Відео: 720х384 (1,85:1), 1973 kbps, 23.976 fps, 0.298 bit/pixel
    Аудіо: AC3, 48 kHz, 2 ch, 192 kbps-Джерело:

    MediaInfo

    Общее
    Полное имя                               : \American Ultra (2015) BDRip [UKR] [Hurtom].avi
    Формат                                   : AVI
    Формат/Информация                        : Audio Video Interleave
    Размер файла                             : 1,45 Гбайт
    Продолжительность                        : 1 ч. 35 м.
    Общий поток                              : 2175 Кбит/сек
    Программа кодирования                    : VirtualDubMod 1.5.10.2 (build 2540/release)
    Библиотека кодирования                   : VirtualDubMod build 2540/release
    Видео
    Идентификатор                            : 0
    Формат                                   : MPEG-4 Visual
    Профиль формата                          : Advanced Simple@L5
    Параметр BVOP формата                    : 1
    Параметр QPel формата                    : Нет
    Параметр GMC формата                     : Без точки перехода
    Параметр матрицы формата                 : Выборочная
    Идентификатор кодека                     : XVID
    Идентификатор кодека/Подсказка           : XviD
    Продолжительность                        : 1 ч. 35 м.
    Битрейт                                  : 1973 Кбит/сек
    Ширина                                   : 720 пикселей
    Высота                                   : 384 пикселя
    Соотношение сторон                       : 1,85:1
    Частота кадров                           : 23,976 кадра/сек
    Цветовое пространство                    : YUV
    Субдискретизация насыщенности            : 4:2:0
    Битовая глубина                          : 8 бит
    Тип развёртки                            : Прогрессивная
    Метод сжатия                             : С потерями
    Бит/(Пиксели*Кадры)                      : 0.298
    Размер потока                            : 1,32 Гбайт (91%)
    Библиотека кодирования                   : XviD 73
    Аудио
    Идентификатор                            : 1
    Формат                                   : AC-3
    Формат/Информация                        : Audio Coding 3
    Расширение режима                        : CM (complete main)
    Параметр Endianness формата              : Big
    Идентификатор кодека                     : 2000
    Продолжительность                        : 1 ч. 35 м.
    Вид битрейта                             : Постоянный
    Битрейт                                  : 192 Кбит/сек
    Каналы                                   : 2 канала
    Расположение каналов                     : Front: L R
    Частота                                  : 48,0 КГц
    Битовая глубина                          : 16 бит
    Метод сжатия                             : С потерями
    Размер потока                            : 131 Мбайт (9%)
    Выравнивание                             : Разделение по промежуткам
    Продолжительность промежутка             : 42  мс. (1,00 видеокадр)
    Время предзагрузки промежутка            : 500  мс.

    Скріншоти

    Скачать .torrent

    Скачать торрент-файл бесплатно и на максимальной скорости!

    Как скачивать? · Что такое торрент? · Рейтинг и ограничения

    !ВНИМАНИЕ!
    Сайт не распространяет и не хранит электронные версии произведений, а занимается лишь лишь предоставлением доступа к создаваемому пользователями каталогу ссылок на торрент-файлы, которые содержат только списки хеш-сумм, убедительная просьба с жалобами обращаться напрямую к пользователю. Файлы для обмена на трекере предоставлены пользователями сайта, и администрация не несёт ответственности за их содержание. Просьба не заливать файлы, защищенные авторскими правами, а также файлы нелегального содержания!


    _________________
    [Профиль] [ЛС]
    Показать сообщения:    
    Ответить на тему

    Текущее время: Сегодня, в 12:21

    Часовой пояс: GMT + 2



    Вы не можете начинать темы
    Вы не можете отвечать на сообщения
    Вы не можете редактировать свои сообщения
    Вы не можете удалять свои сообщения
    Вы не можете голосовать в опросах
    Вы не можете прикреплять файлы к сообщениям
    Вы не можете скачивать файлы