BitTorrentTracker PerecTracker.org
BitTorrentTracker PerecTracker.org
    
Регистрация  ·  Вход
 
 · 
Забыли пароль?

  • (Alternative Rock) Grant Hart - Intolerance - 1989, FLAC (image+.cue), lossless

    Ответить на тему
     
    Автор Сообщение

    Columb

    Создавать темы 28-Июл-2013 09:47

           

    [Цитировать]

    Grant Hart / Intolerance
    Жанр: Alternative Rock
    Страна-производитель диска: US
    Год издания: 1989
    Издатель (лейбл): SST Records
    Номер по каталогу: SST CD 215
    Аудиокодек: FLAC (*.flac)
    Тип рипа: image+.cue
    Продолжительность: 00:38:44
    Источник (релизер): Из собственной колекции
    Треклист:
    1 All Of My Senses 5:51
    2 Now That You Know Me 3:54
    3 Fanfare In D Major (Come, Come) 3:45
    4 The Main 4:04
    5 Twenty-Five Forty-One 4:44
    6 Roller-Rink 4:23
    7 You're The Victim 3:10
    8 Anything 3:28
    9 She Can See The Angels Coming 3:42
    10 Reprise 1:43

    Лог создания рипа

    Exact Audio Copy V1.0 beta 3 from 29. August 2011
    Отчёт EAC об извлечении, выполненном 27. июля 2013, 19:29
    Grant Hart / Intolerance
    Дисковод: TSSTcorpCD/DVDW SH-S182D Adapter: 0 ID: 0
    Режим чтения : Достоверность
    Использование точного потока : Да
    Отключение кэша аудио : Да
    Использование указателей C2 : Нет
    Коррекция смещения при чтении : 6
    Способность читать области Lead-in и Lead-out : Нет
    Заполнение пропущенных сэмплов тишиной : Да
    Удаление блоков с тишиной в начале и конце : Нет
    При вычислениях CRC использовались нулевые сэмплы : Да
    Интерфейс : Встроенный Win32-интерфейс для Win NT/2000
    Выходной формат : Пользовательский кодировщик
    Выбранный битрейт : 128 kBit/s
    Качество : Высокий
    Добавление ID3-тега : Нет
    Утилита сжатия : D:\Program Files\Exact Audio Copy\Flac\flac.exe
    Дополнительные параметры : -V -8 -T "Date=%year%" -T "Genre=%genre%" %source%
    TOC извлечённого CD
    Трек | Старт | Длительность | Начальный сектор | Конечный сектор
    ---------------------------------------------------------------------
    1 | 0:00.37 | 5:56.43 | 37 | 26779
    2 | 5:57.05 | 3:56.37 | 26780 | 44516
    3 | 9:53.42 | 3:49.13 | 44517 | 61704
    4 | 13:42.55 | 4:06.22 | 61705 | 80176
    5 | 17:49.02 | 4:47.28 | 80177 | 101729
    6 | 22:36.30 | 4:25.70 | 101730 | 121674
    7 | 27:02.25 | 3:17.32 | 121675 | 136481
    8 | 30:19.57 | 3:30.10 | 136482 | 152241
    9 | 33:49.67 | 3:47.03 | 152242 | 169269
    10 | 37:36.70 | 1:42.37 | 169270 | 176956
    Характеристики диапазона извлечения и сообщения об ошибках
    Выбранный диапазон
    Имя файла C:\Моя музыка\Grant Hart - Intolerance.wav
    Пиковый уровень 97.3 %
    Скорость извлечения 3.9 X
    Качество диапазона 100.0 %
    CRC теста 7ED46381
    CRC копии 7ED46381
    Копирование... OK
    Ошибок не произошло
    Конец отчёта
    ==== Контрольная сумма отчёта 108F4D8B3A21C9B8003D258236D054CC006366F13524665A09F84EB6A29AE588 ====

    Содержание индексной карты (.CUE)

    REM GENRE Other
    REM DATE 1989
    REM DISCID 7E09370A
    REM COMMENT "ExactAudioCopy v1.0b3"
    PERFORMER "Grant Hart"
    TITLE "Intolerance"
    FILE "Grant Hart - Intolerance.flac" WAVE
    TRACK 01 AUDIO
    TITLE "All of My Senses"
    PERFORMER "Grant Hart"
    INDEX 00 00:00:00
    INDEX 01 00:00:37
    TRACK 02 AUDIO
    TITLE "Now That You Know Me"
    PERFORMER "Grant Hart"
    INDEX 00 05:54:45
    INDEX 01 05:57:05
    TRACK 03 AUDIO
    TITLE "Fanfare in D Major (Come, Come)"
    PERFORMER "Grant Hart"
    INDEX 00 09:52:58
    INDEX 01 09:53:42
    TRACK 04 AUDIO
    TITLE "The Main"
    PERFORMER "Grant Hart"
    INDEX 00 13:40:10
    INDEX 01 13:42:55
    TRACK 05 AUDIO
    TITLE "Twenty-Five Forty-One"
    PERFORMER "Grant Hart"
    INDEX 00 17:47:43
    INDEX 01 17:49:02
    TRACK 06 AUDIO
    TITLE "Roller-Rink"
    PERFORMER "Grant Hart"
    INDEX 00 22:34:00
    INDEX 01 22:36:30
    TRACK 07 AUDIO
    TITLE "You're The Victim"
    PERFORMER "Grant Hart"
    INDEX 00 27:00:25
    INDEX 01 27:02:25
    TRACK 08 AUDIO
    TITLE "Anything"
    PERFORMER "Grant Hart"
    INDEX 01 30:19:57
    TRACK 09 AUDIO
    TITLE "She Can See The Angels Coming"
    PERFORMER "Grant Hart"
    INDEX 01 33:49:67
    TRACK 10 AUDIO
    TITLE "Reprise"
    PERFORMER "Grant Hart"
    INDEX 00 37:35:08
    INDEX 01 37:36:70
    Скачать .torrent

    Скачать торрент-файл бесплатно и на максимальной скорости!

    Как скачивать? · Что такое торрент? · Рейтинг и ограничения

    !ВНИМАНИЕ!
    Сайт не распространяет и не хранит электронные версии произведений, а занимается лишь лишь предоставлением доступа к создаваемому пользователями каталогу ссылок на торрент-файлы, которые содержат только списки хеш-сумм, убедительная просьба с жалобами обращаться напрямую к пользователю. Файлы для обмена на трекере предоставлены пользователями сайта, и администрация не несёт ответственности за их содержание. Просьба не заливать файлы, защищенные авторскими правами, а также файлы нелегального содержания!

    [Профиль] [ЛС]
    Показать сообщения:    
    Ответить на тему

    Текущее время: Сегодня, в 20:47

    Часовой пояс: GMT + 2



    Вы не можете начинать темы
    Вы не можете отвечать на сообщения
    Вы не можете редактировать свои сообщения
    Вы не можете удалять свои сообщения
    Вы не можете голосовать в опросах
    Вы не можете прикреплять файлы к сообщениям
    Вы не можете скачивать файлы