BitTorrentTracker PerecTracker.org
BitTorrentTracker PerecTracker.org
    
Регистрация  ·  Вход
 
 · 
Забыли пароль?

  • Вікінги / Vikings / Сезон 2 (Кен Джиротті, Кіаран Доннеллі, Джефф Вулнаф) [2014 р., бойовик, драма, військовий, історія, WEB-DLRip] MVO (1+1) Ukr + Original

    Ответить на тему
     
    Автор Сообщение

    older

    Создавать темы 15-Ноя-2015 04:24

           

    [Цитировать]

    Вікінги / Vikings / Сезон 2

    Рік випуску: 2014
    Країна: Ірландія , Канада
    Кіностудія / кінокомпанія: MGM Television
    Жанр: бойовик, драма, військовий, історія
    Тривалість: 1 серія: 00:44:00 (цілком серій: 10)
    Субтитри: відсутні
    Переклад: багатоголосий, закадровий (професійний) - 1+1
    Аудіодоріжка: українська, англійська-Режисер: Кен Джиротті, Кіаран Доннеллі, Джефф Вулнаф
    Продюсер: Джеймс Флінн, Білл Годдар, Майкл Херст
    Сценарій: Майкл Херст-Світова прем'єра: 3 березня 2013- -Актори: Тревіс Фіммел, Клайв стенд, Густаф Скарсгард, Кетрін Віннік, Джордж Благден, Джессалін Гілсіг, Мод Хірст, Алісса Сазерленд, Джефферсон Хол, Олександр Людвіг-Сюжет: Це історія про пригоди найбільшого героя свого часу - Рагнара Лодброка. У серіалі показаний Рагнар зі своїм племенем братів-вікінгів і його сім'єю в процесі становлення королем усіх племен вікінгів.
    Рагнар - безстрашний воїн і релігійний вікінг, який об'єднує всі племена і поширює серед них поклоніння скандинавським богам. Згідно з легендою, він - прямий нащадок Одіна, бога війни і воїнів.-Формат: AVI
    Якість: WEB-DLRip
    Відео кодек: XviD
    Відео: 720x400 (16:9), 1307 kbps, 23.976 fps, 0.189 bit/pixel
    Аудіо 1: 48 kHz, MPEG Layer 3, 2 ch, 128.00 kbps
    Аудіо 2: 48 kHz, MPEG Layer 3, 2 ch, 128.00 kbps-Джерело:

    MediaInfo

    Общее
    Полное имя                               : \Vikings.s02.WEB-DLRip.Ukr.Eng\Vikings.s02e01.WEB-DLRip.Ukr.Eng.avi
    Формат                                   : AVI
    Формат/Информация                        : Audio Video Interleave
    Размер файла                             : 500 Мбайт
    Продолжительность                        : 44 м.
    Режим общего битрейта                    : Переменный
    Общий поток                              : 1583 Кбит/сек
    Тема                                     : Vikings. Season 2, Episode 1. Brother's War
    Программа кодирования                    : VirtualDubMod 1.5.10.2 (build 2540/release)
    Библиотека кодирования                   : VirtualDubMod build 2540/release
    Видео
    Идентификатор                            : 0
    Формат                                   : MPEG-4 Visual
    Профиль формата                          : Advanced Simple@L5
    Параметр BVOP формата                    : 2
    Параметр QPel формата                    : Нет
    Параметр GMC формата                     : Без точки перехода
    Параметр матрицы формата                 : Default (H.263)
    Идентификатор кодека                     : XVID
    Идентификатор кодека/Подсказка           : XviD
    Продолжительность                        : 44 м.
    Битрейт                                  : 1307 Кбит/сек
    Ширина                                   : 720 пикселей
    Высота                                   : 400 пикселей
    Соотношение сторон                       : 16:9
    Частота кадров                           : 23,976 кадра/сек
    Цветовое пространство                    : YUV
    Субдискретизация насыщенности            : 4:2:0
    Битовая глубина                          : 8 бит
    Тип развёртки                            : Прогрессивная
    Метод сжатия                             : С потерями
    Бит/(Пиксели*Кадры)                      : 0.189
    Размер потока                            : 413 Мбайт (83%)
    Библиотека кодирования                   : XviD 65
    Аудио #1
    Идентификатор                            : 1
    Формат                                   : MPEG Audio
    Версия формата                           : Version 1
    Профиль формата                          : Layer 3
    Режим                                    : Joint stereo
    Расширение режима                        : MS Stereo
    Идентификатор кодека                     : 55
    Идентификатор кодека/Подсказка           : MP3
    Продолжительность                        : 44 м.
    Вид битрейта                             : Постоянный
    Битрейт                                  : 128 Кбит/сек
    Каналы                                   : 2 канала
    Частота                                  : 48,0 КГц
    Метод сжатия                             : С потерями
    Размер потока                            : 40,4 Мбайт (8%)
    Выравнивание                             : Соединение по промежуткам
    Продолжительность промежутка             : 42  мс. (1,00 видеокадр)
    Время предзагрузки промежутка            : 504  мс.
    Заголовок                                : Ukrainian
    Аудио #2
    Идентификатор                            : 2
    Формат                                   : MPEG Audio
    Версия формата                           : Version 1
    Профиль формата                          : Layer 3
    Режим                                    : Joint stereo
    Расширение режима                        : MS Stereo
    Идентификатор кодека                     : 55
    Идентификатор кодека/Подсказка           : MP3
    Продолжительность                        : 44 м.
    Вид битрейта                             : Переменный
    Битрейт                                  : 128 Кбит/сек
    Каналы                                   : 2 канала
    Частота                                  : 48,0 КГц
    Метод сжатия                             : С потерями
    Размер потока                            : 41,4 Мбайт (8%)
    Выравнивание                             : Соединение по промежуткам
    Продолжительность промежутка             : 24  мс. (0,58 видеокадр)
    Время предзагрузки промежутка            : 363  мс.
    Заголовок                                : English
    Библиотека кодирования                   : LAME3.90.
    Настройки программы                      : -m j -V 4 -q 2 -lowpass 17.6 --abr 128

    Скріншоти

    Перелік серій

    Vikings. Season 2, Episode 1. Brother's War
    Vikings. Season 2, Episode 2. Invasion
    Vikings. Season 2, Episode 3. Treachery
    Vikings. Season 2, Episode 4. Eye for an Eye
    Vikings. Season 2, Episode 5. Answers in Blood
    Vikings. Season 2, Episode 6. Unforgiven
    Vikings. Season 2, Episode 7. Blood Eagle
    Vikings. Season 2, Episode 8. Boneless
    Vikings. Season 2, Episode 9. The Choice
    Vikings. Season 2, Episode 10. The Lord's Prayer
    Скачать .torrent

    Скачать торрент-файл бесплатно и на максимальной скорости!

    Как скачивать? · Что такое торрент? · Рейтинг и ограничения

    !ВНИМАНИЕ!
    Сайт не распространяет и не хранит электронные версии произведений, а занимается лишь лишь предоставлением доступа к создаваемому пользователями каталогу ссылок на торрент-файлы, которые содержат только списки хеш-сумм, убедительная просьба с жалобами обращаться напрямую к пользователю. Файлы для обмена на трекере предоставлены пользователями сайта, и администрация не несёт ответственности за их содержание. Просьба не заливать файлы, защищенные авторскими правами, а также файлы нелегального содержания!


    _________________
    [Профиль] [ЛС]
    Показать сообщения:    
    Ответить на тему

    Текущее время: Сегодня, в 06:37

    Часовой пояс: GMT + 2



    Вы не можете начинать темы
    Вы не можете отвечать на сообщения
    Вы не можете редактировать свои сообщения
    Вы не можете удалять свои сообщения
    Вы не можете голосовать в опросах
    Вы не можете прикреплять файлы к сообщениям
    Вы не можете скачивать файлы