BitTorrentTracker PerecTracker.org
BitTorrentTracker PerecTracker.org
    
Регистрация  ·  Вход
 
 · 
Забыли пароль?

  • Законослухняний громадянин / Law Abiding Citizen (Ф. Гері Грей) [2009 р., трилер, драма, кримінал, BDRip] MVO Ukr

    Ответить на тему
     
    Автор Сообщение

    older

    Создавать темы 15-Ноя-2015 03:41

           

    [Цитировать]

    Законослухняний громадянин / Law Abiding Citizen

    Рік випуску: 2009
    Країна: США
    Кіностудія / кінокомпанія: Film Department, The, Warp Film, Evil Twins
    Жанр: трилер, драма, кримінал
    Тривалість: 01:48:29
    Субтитри: відсутні
    Переклад: багатоголосий, закадровий (професійний)
    Аудіодоріжка: українська-Режисер: Ф. Гері Грей
    Продюсер: Джерард Батлер, Лукас Фостер, Марк Гілл
    Сценарій: Курт Віммер-Світова прем'єра: 23 вересня 2009- -Актори: Джерард Батлер, Джеймі Фокс, Леслі Бібб, Майкл Гембон, Колм Міні, Реджина Холл, Джош Стюарт, Брюс МакДжилл-Сюжет: Законослухняний житель Філадельфії Клайд Шелтон втрачає сім'ю в результаті бандитського нападу. Але коли злочинці опинилися в руках правосуддя, з'ясувалося, що юридичній Системі зручніше піти на співпрацю з одним з бандитів, щоб дати вищу міру іншому.
    Помічник окружного прокурора Нік Райс йде на цю співпрацю, всупереч протестам обуреного Шелтона, свято віруючого в бездоганність Закону. Але його правами знехтували. І тоді через роки безвісний месник починає творити власну розправу над вбивцями. Нік Райс достатньо швидко знаходить його. Це. Клайд Шелтон. Райсу здається, що йому неважко добитися визнання від роздавленого сімейною трагедією Клайда.
    Яке ж здивування всіх працівників Системи, коли вони виявляють, що навіть поміщений у в'язницю, ця людина здатна на найжорстокішу і витонченішу помсту. Більш того, вони опинилися абсолютно безсилі перед геніальною грою і смертоносними ударами ізольованого в одинаку Шелтона! Законослухняний громадянин почав безпощадну війну проти них всіх. І справа зовсім не в помсті...-Формат: AVI
    Якість: BDRip
    Відео кодек: XviD
    Відео: 720x304 (2,35:1), 1485 kbps, 23.976 fps, 0.283 bit/pixel
    Аудіо: AC3, 48 kHz, 6 ch, 384 kbps-Джерело:

    MediaInfo

    Общее
    Полное имя                               : \Law Abiding Citizen (2009) BDRip [UKR] [Hurtom] by patriot2305.avi
    Формат                                   : AVI
    Формат/Информация                        : Audio Video Interleave
    Размер файла                             : 1,42 Гбайт
    Продолжительность                        : 1 ч. 48 м.
    Общий поток                              : 1879 Кбит/сек
    Программа кодирования                    : VirtualDubModUkr 1.5.10.2 (build 2542/release)
    Библиотека кодирования                   : VirtualDubMod build 2542/release
    Видео
    Идентификатор                            : 0
    Формат                                   : MPEG-4 Visual
    Профиль формата                          : Advanced Simple@L5
    Параметр BVOP формата                    : 1
    Параметр QPel формата                    : Нет
    Параметр GMC формата                     : Без точки перехода
    Параметр матрицы формата                 : Выборочная
    Идентификатор кодека                     : XVID
    Идентификатор кодека/Подсказка           : XviD
    Продолжительность                        : 1 ч. 48 м.
    Битрейт                                  : 1485 Кбит/сек
    Ширина                                   : 720 пикселей
    Высота                                   : 304 пикселя
    Соотношение сторон                       : 2,35:1
    Частота кадров                           : 23,976 кадра/сек
    Цветовое пространство                    : YUV
    Субдискретизация насыщенности            : 4:2:0
    Битовая глубина                          : 8 бит
    Тип развёртки                            : Прогрессивная
    Метод сжатия                             : С потерями
    Бит/(Пиксели*Кадры)                      : 0.283
    Размер потока                            : 1,13 Гбайт (79%)
    Библиотека кодирования                   : XviD 1.2.1 (UTC 2008-12-04)
    Аудио
    Идентификатор                            : 1
    Формат                                   : AC-3
    Формат/Информация                        : Audio Coding 3
    Расширение режима                        : CM (complete main)
    Параметр Endianness формата              : Big
    Идентификатор кодека                     : 2000
    Продолжительность                        : 1 ч. 48 м.
    Вид битрейта                             : Постоянный
    Битрейт                                  : 384 Кбит/сек
    Каналы                                   : 6 каналов
    Расположение каналов                     : Front: L C R, Side: L R, LFE
    Частота                                  : 48,0 КГц
    Битовая глубина                          : 16 бит
    Метод сжатия                             : С потерями
    Размер потока                            : 298 Мбайт (20%)
    Выравнивание                             : Разделение по промежуткам
    Продолжительность промежутка             : 42  мс. (1,00 видеокадр)
    Время предзагрузки промежутка            : 500  мс.

    Скріншоти

    Скачать .torrent

    Скачать торрент-файл бесплатно и на максимальной скорости!

    Как скачивать? · Что такое торрент? · Рейтинг и ограничения

    !ВНИМАНИЕ!
    Сайт не распространяет и не хранит электронные версии произведений, а занимается лишь лишь предоставлением доступа к создаваемому пользователями каталогу ссылок на торрент-файлы, которые содержат только списки хеш-сумм, убедительная просьба с жалобами обращаться напрямую к пользователю. Файлы для обмена на трекере предоставлены пользователями сайта, и администрация не несёт ответственности за их содержание. Просьба не заливать файлы, защищенные авторскими правами, а также файлы нелегального содержания!


    _________________


    Последний раз редактировалось: older (2015-11-16 06:19), всего редактировалось 1 раз
    [Профиль] [ЛС]
    Показать сообщения:    
    Ответить на тему

    Текущее время: Сегодня, в 04:20

    Часовой пояс: GMT + 2



    Вы не можете начинать темы
    Вы не можете отвечать на сообщения
    Вы не можете редактировать свои сообщения
    Вы не можете удалять свои сообщения
    Вы не можете голосовать в опросах
    Вы не можете прикреплять файлы к сообщениям
    Вы не можете скачивать файлы