BitTorrentTracker PerecTracker.org
BitTorrentTracker PerecTracker.org
    
Регистрация  ·  Вход
 
 · 
Забыли пароль?

  • Хрещений батько. Трилогія / The Godfather. Trilogy (Френсіс Форд Коппола) [1972-1990 р., драма, кримінал, BDRip] DVO (Студія «1+1») Ukr + MVO (Так Треба Продакшн) Ukr + Original

    Ответить на тему
     
    Автор Сообщение

    older

    Создавать темы 14-Ноя-2015 18:59

           

    [Цитировать]

    Хрещений батько. Трилогія / The Godfather. Trilogy

    Рік випуску: 1972-1990
    Країна: США
    Кіностудія / кінокомпанія: Paramount Pictures, Alfran Productions / The Coppola Company / Zoetrope Studios
    Жанр: драма, кримінал
    Тривалість: 02:57:09 + 03:22:06 + 02:50:15
    Субтитри: англійські
    Переклад: двоголосий закадровий (професійний) - Студія «1+1», багатоголосий, закадровий (професійний) - Так Треба Продакшн на замовлення телекомпанії Інтер
    Аудіодоріжка: українська-Режисер: Френсіс Форд Коппола
    Продюсер: Альберт С. Радді, Грей Фредріксон, Роберт Еванс
    Сценарій: Маріо П'юзо, Френсіс Форд Коппола-Світова прем'єра: 15 березня 1972- -Актори: Марлон Брандо (Marlon Brando), Аль Пачіно (Al Pacino), Джеймс Каан (James Caan), Роберт Дюваль (Robert Duvall), Річард С. Кастелліано (Richard S. Castellano), Роберт Де Ніро (Robert De Niro), Стерлінґ Гайден (Sterling Hayden), Діана Кітон (Diane Keaton), Джон Казале (John Cazale), Талія Шайр (Talia Shire), Лі Страсберґ (Lee Strasberg), Майкл В. Ґацо (Michael V. Gazzo), Бруно Кірбі (Bruno Kirby), Енді Ґарсія (Andy Garcia), Елі Воллах (Eli Wallach), Джо Мантеґна (Joe Mantegna), Джордж Гамільтон (George Hamilton), Бріджит Фонда (Bridget Fonda)-Сюжет: У своєму роді культова екранізація такої ж відомої книги Маріо П’юзо про становлення італійської мафії "Коза ностра" в США у часи між першою та другою світовими війнами. У центрі історії - родина одного з головних кримінальних босів Америки Віто Корлеоне, якому доводиться не лише боротися з урядом і його каральною системою та захищати своїх людей і бізнес від конкурентів, а й вирішувати проблеми всередині власної родини, які постійно створюють його три цілковито різні сини: запальний Сонні, нерішучий Фредо та холоднокровний і впертий Майкл.
    Друга частина знаменитої трилогії про італійську мафію, поставлена за романами Маріо П’юзо - настільки реальними, що ходили чутки про численні, спочатку, погрози, а потім і подарунки, які він отримав від бандитів, здивованих такою достовірністю опису їхнього життя. Продовження "Хрещеного батька" розділяється на дві сюжетні лінії - одна розповідає про дитячі та юнацькі роки голови клану Віто Корлеоне, друга - змальовує становлення в якості мафіозного боса одного з його синів, Майкла, який перейняв і продовжив справу батька.
    Через двадцять п'ять років після виходу на екрани другого фільму режисер Френсіс Форд Коппола вирішив повернутися до одного з найвідоміших своїх творінь, аби довести його до логічного завершення. В заключній частині трилогії про гангстерську родину Корлеоне мова йде про традиційне продовження справ будь-якого кримінального боса - дон Майкл Корлеоне намагається легалізувати свій бізнес і стати повністю чесною людиною і членом суспільства. Але життя підкладає часом несподівані пастки і Майклові доводиться згадати призабутий досвід кривавих методів вирішення проблем.-Формат: AVI
    Якість: BDRip
    Відео кодек: XviD
    Відео: 720x400 (16:9), 2130-2225 kbps, 23.976 fps, 0.267-0.322 bit/pixel
    Аудіо 1: AC3, 48 kHz, 2 ch, 192 kbps - Студія «1+1»
    Аудіо 2: AC3, 48 kHz, 6 ch, 384 kbps - Original (окремим файлом)
    Аудіо 3: AC3, 48 kHz, 2 ch, 192 kbps - Так Треба Продакшн (окремим файлом)-Джерело:

    Реліз

    Висловлюємо щиру подяку: п. Tanat13 за наданий сирий звук до Аудіо #1, п. slavik_v_z за наданий сирий звук до Аудіо #2 і п. thefir за українізацію постера.
    Ролі озвучили - від 1+1: Олександр Ігнатуша і Лариса Руснак
    Ролі озвучили - від Інтер: Олег Стальчук, Анатолій Пашнін, Юрій Ребрик і один жіночий.

    Скріншоти

    MediaInfo: 1 частина

    Общее
    Полное имя                               : \The Godfather Trilogy [Hurtom]\The Godfather (1972) [Ukr] BDRip [Hurtom].avi
    Формат                                   : AVI
    Формат/Информация                        : Audio Video Interleave
    Профиль формата                          : OpenDML
    Размер файла                             : 2,89 Гбайт
    Продолжительность                        : 2 ч. 57 м.
    Общий поток                              : 2333 Кбит/сек
    Программа кодирования                    : VirtualDubMod 1.5.10.3 | www.virtualdub-fr.org || (build 2550/release)
    Библиотека кодирования                   : VirtualDubMod build 2550/release
    Видео
    Идентификатор                            : 0
    Формат                                   : MPEG-4 Visual
    Профиль формата                          : Advanced Simple@L5
    Параметр BVOP формата                    : 1
    Параметр QPel формата                    : Нет
    Параметр GMC формата                     : Без точки перехода
    Параметр матрицы формата                 : Default (MPEG)
    Идентификатор кодека                     : XVID
    Идентификатор кодека/Подсказка           : XviD
    Продолжительность                        : 2 ч. 57 м.
    Битрейт                                  : 2130 Кбит/сек
    Ширина                                   : 720 пикселей
    Высота                                   : 400 пикселей
    Соотношение сторон                       : 16:9
    Частота кадров                           : 23,976 кадра/сек
    Цветовое пространство                    : YUV
    Субдискретизация насыщенности            : 4:2:0
    Битовая глубина                          : 8 бит
    Тип развёртки                            : Прогрессивная
    Метод сжатия                             : С потерями
    Бит/(Пиксели*Кадры)                      : 0.308
    Размер потока                            : 2,64 Гбайт (91%)
    Библиотека кодирования                   : XviD 65
    Аудио
    Идентификатор                            : 1
    Формат                                   : AC-3
    Формат/Информация                        : Audio Coding 3
    Расширение режима                        : CM (complete main)
    Параметр Endianness формата              : Big
    Идентификатор кодека                     : 2000
    Продолжительность                        : 2 ч. 57 м.
    Вид битрейта                             : Постоянный
    Битрейт                                  : 192 Кбит/сек
    Каналы                                   : 2 канала
    Расположение каналов                     : Front: L R
    Частота                                  : 48,0 КГц
    Битовая глубина                          : 16 бит
    Метод сжатия                             : С потерями
    Размер потока                            : 243 Мбайт (8%)
    Выравнивание                             : Разделение по промежуткам
    Продолжительность промежутка             : 42  мс. (1,00 видеокадр)
    Время предзагрузки промежутка            : 500  мс.

    MediaInfo: 2 частина

    Общее
    Полное имя                               : \The Godfather Trilogy [Hurtom]\The Godfather. Part II (1974) [Ukr] BDRip [Hurtom].avi
    Формат                                   : AVI
    Формат/Информация                        : Audio Video Interleave
    Профиль формата                          : OpenDML
    Размер файла                             : 2,89 Гбайт
    Продолжительность                        : 3 ч. 22 м.
    Общий поток                              : 2046 Кбит/сек
    Программа кодирования                    : VirtualDubMod 1.5.10.3 | www.virtualdub-fr.org || (build 2550/release)
    Библиотека кодирования                   : VirtualDubMod build 2550/release
    Видео
    Идентификатор                            : 0
    Формат                                   : MPEG-4 Visual
    Профиль формата                          : Advanced Simple@L5
    Параметр BVOP формата                    : 1
    Параметр QPel формата                    : Нет
    Параметр GMC формата                     : Без точки перехода
    Параметр матрицы формата                 : Default (MPEG)
    Идентификатор кодека                     : XVID
    Идентификатор кодека/Подсказка           : XviD
    Продолжительность                        : 3 ч. 22 м.
    Битрейт                                  : 1843 Кбит/сек
    Ширина                                   : 720 пикселей
    Высота                                   : 400 пикселей
    Соотношение сторон                       : 16:9
    Частота кадров                           : 23,976 кадра/сек
    Цветовое пространство                    : YUV
    Субдискретизация насыщенности            : 4:2:0
    Битовая глубина                          : 8 бит
    Тип развёртки                            : Прогрессивная
    Метод сжатия                             : С потерями
    Бит/(Пиксели*Кадры)                      : 0.267
    Размер потока                            : 2,60 Гбайт (90%)
    Библиотека кодирования                   : XviD 65
    Аудио
    Идентификатор                            : 1
    Формат                                   : AC-3
    Формат/Информация                        : Audio Coding 3
    Расширение режима                        : CM (complete main)
    Параметр Endianness формата              : Big
    Идентификатор кодека                     : 2000
    Продолжительность                        : 3 ч. 22 м.
    Вид битрейта                             : Постоянный
    Битрейт                                  : 192 Кбит/сек
    Каналы                                   : 2 канала
    Расположение каналов                     : Front: L R
    Частота                                  : 48,0 КГц
    Битовая глубина                          : 16 бит
    Метод сжатия                             : С потерями
    Размер потока                            : 278 Мбайт (9%)
    Выравнивание                             : Разделение по промежуткам
    Продолжительность промежутка             : 42  мс. (1,00 видеокадр)
    Время предзагрузки промежутка            : 500  мс.

    MediaInfo: 3 частина

    Общее
    Полное имя                               : \The Godfather Trilogy [Hurtom]\The Godfather. Part III (1990) [Ukr] BDRip [Hurtom].avi
    Формат                                   : AVI
    Формат/Информация                        : Audio Video Interleave
    Профиль формата                          : OpenDML
    Размер файла                             : 2,89 Гбайт
    Продолжительность                        : 2 ч. 50 м.
    Общий поток                              : 2428 Кбит/сек
    Программа кодирования                    : VirtualDubMod 1.5.10.3 | www.virtualdub-fr.org || (build 2550/release)
    Библиотека кодирования                   : VirtualDubMod build 2550/release
    Видео
    Идентификатор                            : 0
    Формат                                   : MPEG-4 Visual
    Профиль формата                          : Advanced Simple@L5
    Параметр BVOP формата                    : 1
    Параметр QPel формата                    : Нет
    Параметр GMC формата                     : Без точки перехода
    Параметр матрицы формата                 : Default (MPEG)
    Идентификатор кодека                     : XVID
    Идентификатор кодека/Подсказка           : XviD
    Продолжительность                        : 2 ч. 50 м.
    Битрейт                                  : 2225 Кбит/сек
    Ширина                                   : 720 пикселей
    Высота                                   : 400 пикселей
    Соотношение сторон                       : 16:9
    Частота кадров                           : 23,976 кадра/сек
    Цветовое пространство                    : YUV
    Субдискретизация насыщенности            : 4:2:0
    Битовая глубина                          : 8 бит
    Тип развёртки                            : Прогрессивная
    Метод сжатия                             : С потерями
    Бит/(Пиксели*Кадры)                      : 0.322
    Размер потока                            : 2,65 Гбайт (92%)
    Библиотека кодирования                   : XviD 65
    Аудио
    Идентификатор                            : 1
    Формат                                   : AC-3
    Формат/Информация                        : Audio Coding 3
    Расширение режима                        : CM (complete main)
    Параметр Endianness формата              : Big
    Идентификатор кодека                     : 2000
    Продолжительность                        : 2 ч. 50 м.
    Вид битрейта                             : Постоянный
    Битрейт                                  : 192 Кбит/сек
    Каналы                                   : 2 канала
    Расположение каналов                     : Front: L R
    Частота                                  : 48,0 КГц
    Битовая глубина                          : 16 бит
    Метод сжатия                             : С потерями
    Размер потока                            : 234 Мбайт (8%)
    Выравнивание                             : Разделение по промежуткам
    Продолжительность промежутка             : 42  мс. (1,00 видеокадр)
    Время предзагрузки промежутка            : 500  мс.
    Скачать .torrent

    Скачать торрент-файл бесплатно и на максимальной скорости!

    Как скачивать? · Что такое торрент? · Рейтинг и ограничения

    !ВНИМАНИЕ!
    Сайт не распространяет и не хранит электронные версии произведений, а занимается лишь лишь предоставлением доступа к создаваемому пользователями каталогу ссылок на торрент-файлы, которые содержат только списки хеш-сумм, убедительная просьба с жалобами обращаться напрямую к пользователю. Файлы для обмена на трекере предоставлены пользователями сайта, и администрация не несёт ответственности за их содержание. Просьба не заливать файлы, защищенные авторскими правами, а также файлы нелегального содержания!


    _________________
    [Профиль] [ЛС]
    Показать сообщения:    
    Ответить на тему

    Текущее время: Сегодня, в 21:58

    Часовой пояс: GMT + 2



    Вы не можете начинать темы
    Вы не можете отвечать на сообщения
    Вы не можете редактировать свои сообщения
    Вы не можете удалять свои сообщения
    Вы не можете голосовать в опросах
    Вы не можете прикреплять файлы к сообщениям
    Вы не можете скачивать файлы