BitTorrentTracker PerecTracker.org
BitTorrentTracker PerecTracker.org
    
Регистрация  ·  Вход
 
 · 
Забыли пароль?

  • Ціна безсмертя / Self/less (Тарсем Сінх) [2015 р., фантастика, трилер, бойовик, WEB-DLRip] DUB (MEGOGO.NET) Ukr

    Ответить на тему
     
    Автор Сообщение

    older

    Создавать темы 08-Ноя-2015 11:11

           

    [Цитировать]

    Ціна безсмертя / Self/less

    Рік випуску: 2015
    Країна: США
    Кіностудія / кінокомпанія: Endgame Entertainment, Ram Bergman Productions
    Жанр: фантастика, трилер, бойовик
    Тривалість: 01:52:12
    Субтитри: відсутні
    Переклад: дубльований (професійний) - MEGOGO.NET
    Аудіодоріжка: українська-Режисер: Тарсем Сінх
    Продюсер: Рем Бергман, Пітер Шліссель, Джеймс Д. Штерн
    Сценарій: Давид Пастор, Алекс Пастор-Світова прем'єра: 10 липня 2015
    Прем'єра в Україні: 30 липня 2015, «Вольга Україна»- -Актори: Раян Рейнольдс / Ryan Reynolds, Бен Кінґслі / Ben Kingsley, Наталі Мартінез / Natalie Martinez, Меттью Ґуд / Matthew Goode, Віктор Ґарбер / Victor Garber, Дерек Люк / Derek Luke, Джейні-Лінн Кінчен / Jaynee-Lynne Kinchen, Мелора Гардін / Melora Hardin, Мішель Докері / Michelle Dockery-Сюжет: В майбутньому стає можливим перемогти смерть за допомогою імплантації своєї свідомості в молоде тіло, створене методом генної інженерії. Операція ця дорога і проводиться підпільно, а тому доступна лише обмеженому колу осіб.
    Вмираючий літній бізнесмен наважується на це і отримує можливість прожити ще одне життя. Однак, коли йому відкривається таємниця походження нового тіла, за ним починає полювати секретна організація, яка не зупиниться ні перед чим, щоб захистити свої інтереси...-Формат: AVI
    Якість: WEB-DLRip
    Відео кодек: XviD
    Відео: 720x400 (16:9), 1656 kbps, 25,000 fps, 0.230 bit/pixel
    Аудіо: AC3, 48 kHz, 2 ch, 192 kbps-Джерело:

    MediaInfo

    Общее
    Полное имя                               : \Self.less (2015) WEB-DLRip [Hurtom].avi
    Формат                                   : AVI
    Формат/Информация                        : Audio Video Interleave
    Размер файла                             : 1,46 Гбайт
    Продолжительность                        : 1 ч. 52 м.
    Общий поток                              : 1857 Кбит/сек
    Программа кодирования                    : VirtualDubMod 1.5.10.2 (build 2540/release)
    Библиотека кодирования                   : VirtualDubMod build 2540/release
    Видео
    Идентификатор                            : 0
    Формат                                   : MPEG-4 Visual
    Профиль формата                          : Advanced Simple@L5
    Параметр BVOP формата                    : 1
    Параметр QPel формата                    : Нет
    Параметр GMC формата                     : Без точки перехода
    Параметр матрицы формата                 : Default (H.263)
    Режим смешивания                         : Сжатый битовый поток
    Идентификатор кодека                     : XVID
    Идентификатор кодека/Подсказка           : XviD
    Продолжительность                        : 1 ч. 52 м.
    Битрейт                                  : 1656 Кбит/сек
    Ширина                                   : 720 пикселей
    Высота                                   : 400 пикселей
    Соотношение сторон                       : 16:9
    Частота кадров                           : 25,000 кадров/сек
    Цветовое пространство                    : YUV
    Субдискретизация насыщенности            : 4:2:0
    Битовая глубина                          : 8 бит
    Тип развёртки                            : Прогрессивная
    Метод сжатия                             : С потерями
    Бит/(Пиксели*Кадры)                      : 0.230
    Размер потока                            : 1,30 Гбайт (89%)
    Библиотека кодирования                   : XviD 1.2.1 (UTC 2008-12-04)
    Аудио
    Идентификатор                            : 1
    Формат                                   : AC-3
    Формат/Информация                        : Audio Coding 3
    Расширение режима                        : CM (complete main)
    Параметр Endianness формата              : Big
    Идентификатор кодека                     : 2000
    Продолжительность                        : 1 ч. 52 м.
    Вид битрейта                             : Постоянный
    Битрейт                                  : 192 Кбит/сек
    Каналы                                   : 2 канала
    Расположение каналов                     : Front: L R
    Частота                                  : 48,0 КГц
    Битовая глубина                          : 16 бит
    Метод сжатия                             : С потерями
    Размер потока                            : 154 Мбайт (10%)
    Выравнивание                             : Разделение по промежуткам
    Продолжительность промежутка             : 40  мс. (1,00 видеокадр)
    Время предзагрузки промежутка            : 500  мс.

    Скріншоти

    Скачать .torrent

    Скачать торрент-файл бесплатно и на максимальной скорости!

    Как скачивать? · Что такое торрент? · Рейтинг и ограничения

    !ВНИМАНИЕ!
    Сайт не распространяет и не хранит электронные версии произведений, а занимается лишь лишь предоставлением доступа к создаваемому пользователями каталогу ссылок на торрент-файлы, которые содержат только списки хеш-сумм, убедительная просьба с жалобами обращаться напрямую к пользователю. Файлы для обмена на трекере предоставлены пользователями сайта, и администрация не несёт ответственности за их содержание. Просьба не заливать файлы, защищенные авторскими правами, а также файлы нелегального содержания!


    _________________
    [Профиль] [ЛС]
    Показать сообщения:    
    Ответить на тему

    Текущее время: Сегодня, в 04:05

    Часовой пояс: GMT + 2



    Вы не можете начинать темы
    Вы не можете отвечать на сообщения
    Вы не можете редактировать свои сообщения
    Вы не можете удалять свои сообщения
    Вы не можете голосовать в опросах
    Вы не можете прикреплять файлы к сообщениям
    Вы не можете скачивать файлы