BitTorrentTracker PerecTracker.org
BitTorrentTracker PerecTracker.org
    
Регистрация  ·  Вход
 
 · 
Забыли пароль?

  • Палкі втікачки / Hot Pursuit (Енн Флетчер) [2015 Р., бойовик, комедія, кримінал BDRip] DUB (iTunes) Ukr

    Ответить на тему
     
    Автор Сообщение

    older

    Создавать темы 08-Ноя-2015 10:19

           

    [Цитировать]

    Палкі втікачки / Hot Pursuit

    Рік випуску: 2015
    Країна: США
    Кіностудія / кінокомпанія: Metro-Goldwyn-Mayer (MGM), New Line Cinema, Pacific Standard
    Жанр: бойовик, комедія, кримінал
    Тривалість: 01:27:31
    Субтитри: відсутні
    Переклад: дубльований (професійний) - iTunes
    Аудіодоріжка: українська-Режисер: Енн Флетчер
    Продюсер: Дена Фокс, Бруна Папандреу, Різ Уізерспун
    Сценарій: Девід Вінні, Джонс Куінтанс-Світова прем'єра: 7 травня 2015
    Прем'єра в Україні: 18 червня 2015, «Кіноманія»
    Реліз на DVD: 17 вересня 2015, «CP Дистрибуція»
    Реліз на Blu-Ray: 17 вересня 2015, «CP Дистрибуція»
    Обмеження за віком: 16+- -Актори: Різ Візерспун / Reese Witherspoon, Софія Верґара / Sofía Vergara, Метью Дел Неґро / Matthew Del Negro, Майкл Мослі / Michael Mosley, Роберт Казінскі / Robert Kazinsky, Річард Т. Джонс / Richard T. Jones, Бенні Нівз / Benny Nieves, Майкл Рей Ескамілья / Michael Ray Escamilla-Сюжет: Усі знають, що програма захисту свідків справа серйозна. Аби як захищати не будуть. Тому, погодившись давати свідчення, вдова наркоторговця була впевнена, що охоронятимуть її надійно. Чим керувалися очільники поліції зрозуміти складно, але для виконання відповідального доручення обрали невдаху. Перша ж небезпека змушує дівчат втікати чимдалі. А дорогою стає зрозуміло, що ховатися їм доведеться не лише від наркоторговців, але і від продажних поліцейських.-Формат: AVI
    Якість: BDRip
    Відео кодек: XviD
    Відео: 720x304 (2,35:1), 2160 kbps, 23.976 fps, 0.412 bit/pixel
    Аудіо: AC3, 48 kHz, 2 ch, 192 kbps-Джерело:

    MediaInfo

    Общее
    Полное имя                               : \Hot Pursuit (2015) BDRip [UKR] [Hurtom].avi
    Формат                                   : AVI
    Формат/Информация                        : Audio Video Interleave
    Размер файла                             : 1,44 Гбайт
    Продолжительность                        : 1 ч. 27 м.
    Общий поток                              : 2361 Кбит/сек
    Программа кодирования                    : VirtualDubMod 1.5.10.2 (build 2540/release)
    Библиотека кодирования                   : VirtualDubMod build 2540/release
    Видео
    Идентификатор                            : 0
    Формат                                   : MPEG-4 Visual
    Профиль формата                          : Advanced Simple@L5
    Параметр BVOP формата                    : 1
    Параметр QPel формата                    : Нет
    Параметр GMC формата                     : Без точки перехода
    Параметр матрицы формата                 : Выборочная
    Идентификатор кодека                     : XVID
    Идентификатор кодека/Подсказка           : XviD
    Продолжительность                        : 1 ч. 27 м.
    Битрейт                                  : 2160 Кбит/сек
    Ширина                                   : 720 пикселей
    Высота                                   : 304 пикселя
    Соотношение сторон                       : 2,35:1
    Частота кадров                           : 23,976 кадра/сек
    Цветовое пространство                    : YUV
    Субдискретизация насыщенности            : 4:2:0
    Битовая глубина                          : 8 бит
    Тип развёртки                            : Прогрессивная
    Метод сжатия                             : С потерями
    Бит/(Пиксели*Кадры)                      : 0.412
    Размер потока                            : 1,32 Гбайт (91%)
    Библиотека кодирования                   : XviD 73
    Аудио
    Идентификатор                            : 1
    Формат                                   : AC-3
    Формат/Информация                        : Audio Coding 3
    Расширение режима                        : CM (complete main)
    Параметр Endianness формата              : Big
    Идентификатор кодека                     : 2000
    Продолжительность                        : 1 ч. 27 м.
    Вид битрейта                             : Постоянный
    Битрейт                                  : 192 Кбит/сек
    Каналы                                   : 2 канала
    Расположение каналов                     : Front: L R
    Частота                                  : 48,0 КГц
    Битовая глубина                          : 16 бит
    Метод сжатия                             : С потерями
    Размер потока                            : 120 Мбайт (8%)
    Выравнивание                             : Разделение по промежуткам
    Продолжительность промежутка             : 42  мс. (1,00 видеокадр)
    Время предзагрузки промежутка            : 500  мс.

    Скріншоти

    Скачать .torrent

    Скачать торрент-файл бесплатно и на максимальной скорости!

    Как скачивать? · Что такое торрент? · Рейтинг и ограничения

    !ВНИМАНИЕ!
    Сайт не распространяет и не хранит электронные версии произведений, а занимается лишь лишь предоставлением доступа к создаваемому пользователями каталогу ссылок на торрент-файлы, которые содержат только списки хеш-сумм, убедительная просьба с жалобами обращаться напрямую к пользователю. Файлы для обмена на трекере предоставлены пользователями сайта, и администрация не несёт ответственности за их содержание. Просьба не заливать файлы, защищенные авторскими правами, а также файлы нелегального содержания!


    _________________
    [Профиль] [ЛС]
    Показать сообщения:    
    Ответить на тему

    Текущее время: Сегодня, в 04:10

    Часовой пояс: GMT + 2



    Вы не можете начинать темы
    Вы не можете отвечать на сообщения
    Вы не можете редактировать свои сообщения
    Вы не можете удалять свои сообщения
    Вы не можете голосовать в опросах
    Вы не можете прикреплять файлы к сообщениям
    Вы не можете скачивать файлы