BitTorrentTracker PerecTracker.org
BitTorrentTracker PerecTracker.org
    
Регистрация  ·  Вход
 
 · 
Забыли пароль?

  • Бердмен / Birdman (Алехандро Ґонсалес Іньярріту) [2014 р., драма, комедія BDRip] MVO (Цікава ідея) Ukr

    Ответить на тему
     
    Автор Сообщение

    older

    Создавать темы 08-Ноя-2015 09:42

           

    [Цитировать]

    Бердмен / Birdman (2014) BDRip

    Рік випуску: 2014
    Країна: США
    Кіностудія / кінокомпанія: New Regency Pictures, M Prods, Grisbi Productions
    Жанр: драма, комедія
    Тривалість: 01:59:17
    Субтитри: відсутні
    Переклад: багатоголосий, закадровий - Цікава ідея, на замовлення HURTOM.COM
    Аудіодоріжка: українська-Режисер: Алехандро Ґонсалес Іньярріту
    Продюсер: Джон Лешер, Арнон Мілчен, Джеймс В. Скочдополь
    Сценарій: Алехандро Гонсалес Іньярріту, Ніколас Джакобо, Олександр Дінеларіс-Світова прем'єра: 27 серпня 2014
    Реліз на DVD: 5 березня 2015, «Двадцяте Століття Фокс СНД»
    Реліз на Blu-Ray: 5 березня 2015, «Двадцяте Століття Фокс СНД»- -Актори: Майкл Кітон, Зак Галіфіанакіс, Едвард Нортон, Андреа Райзборо, Емі Раян-Сюжет: Голлівудський кіноактор Ріґґан Томпсон став відомим завдяки виконанню ролі супергероя Бердмена. Проте це було давно і тепер він мусить переступити через себе і зіграти на Бродвеї, щоб повернути собі свою славу.-Формат: AVI
    Якість: BDRip
    Відео кодек: XviD
    Відео: 704x384 (1,85:1), 1286 kbps, 23.976 fps, 0.198 bit/pixel
    Аудіо: AC3, 48 kHz, 6 ch, 448 kbps
    -
    Джерело:

    MediaInfo

    Общее
    Полное имя                               : \Birdman (2014) [ukr] BDRip [Hurtom].avi
    Формат                                   : AVI
    Формат/Информация                        : Audio Video Interleave
    Размер файла                             : 1,45 Гбайт
    Продолжительность                        : 1 ч. 59 м.
    Общий поток                              : 1743 Кбит/сек
    Название фильма                          : Бердмен / Birdman (2014) [Hurtom]
    Режиссёр                                 : hurtom.com
    Тема                                     : Озвучено на замовлення hurtom.com
    Программа кодирования                    : VirtualDubMod 1.5.10.2 (build 2542/release)
    Библиотека кодирования                   : VirtualDubMod build 2542/release
    Примечание                               : Особлива подяка: 21jumpstreet, abat.andrew, ahilbaca, Alex_Korn, Alisa_Ortega, anthonybsd, aonyshchenko, bambulla, basic, Borysfen, ChubbChubbs, chuvak_9404, d_hubych, Dars, deepfree, deviator, dim1, dimaandr, dimon387, don pedro, Drevlen, evshan, FermerLV, fesiuk, freddycryger, gereley, GingerB, greenmood, Gxost, igor911, ING303, jandrus, karvai0, kosmo.ua, kucher, Kysly, leonidovod, Linn007, makstur, mammamia, melvika, Milvus, morg, muhus, Mustafa, navivokasyl, NeetScrool, NemoInFire / nemos, nimrodel, olaz, olekss22, oleshko77, opryshok76, OviniX, pai1ripe, pesko, piskl, Pit33, renday, romantomchak, Romczyk, Romdoc, romkop, RST, rudchenkos, rudser, Ruslan, ryabuhaad, saur, serzholino, shakhtar3000, shtein, SigaUA, skuline, slava_4, Snuryus, St.Bogush, tarasyk13, tartess, timoha, turba, V_P_Staryk, vecchio, veto, vifilo, VinnOl, webschik, Wivern, wolesj, www2702, xfsthe, yarik_ratnik, голуб, Киянин, Янко Гортало
    Видео
    Идентификатор                            : 0
    Формат                                   : MPEG-4 Visual
    Профиль формата                          : Advanced Simple@L5
    Параметр BVOP формата                    : 1
    Параметр QPel формата                    : Нет
    Параметр GMC формата                     : Без точки перехода
    Параметр матрицы формата                 : Default (MPEG)
    Идентификатор кодека                     : XVID
    Идентификатор кодека/Подсказка           : XviD
    Продолжительность                        : 1 ч. 59 м.
    Битрейт                                  : 1286 Кбит/сек
    Ширина                                   : 704 пикселя
    Высота                                   : 384 пикселя
    Соотношение сторон                       : 1,85:1
    Частота кадров                           : 23,976 кадра/сек
    Цветовое пространство                    : YUV
    Субдискретизация насыщенности            : 4:2:0
    Битовая глубина                          : 8 бит
    Тип развёртки                            : Прогрессивная
    Метод сжатия                             : С потерями
    Бит/(Пиксели*Кадры)                      : 0.198
    Размер потока                            : 1,07 Гбайт (74%)
    Библиотека кодирования                   : XviD 73
    Аудио
    Идентификатор                            : 1
    Формат                                   : AC-3
    Формат/Информация                        : Audio Coding 3
    Расширение режима                        : CM (complete main)
    Параметр Endianness формата              : Big
    Идентификатор кодека                     : 2000
    Продолжительность                        : 1 ч. 59 м.
    Вид битрейта                             : Постоянный
    Битрейт                                  : 448 Кбит/сек
    Каналы                                   : 6 каналов
    Расположение каналов                     : Front: L C R, Side: L R, LFE
    Частота                                  : 48,0 КГц
    Битовая глубина                          : 16 бит
    Метод сжатия                             : С потерями
    Размер потока                            : 382 Мбайт (26%)
    Выравнивание                             : Разделение по промежуткам
    Продолжительность промежутка             : 42  мс. (1,00 видеокадр)
    Время предзагрузки промежутка            : 500  мс.

    Скріншоти

    Скачать .torrent

    Скачать торрент-файл бесплатно и на максимальной скорости!

    Как скачивать? · Что такое торрент? · Рейтинг и ограничения

    !ВНИМАНИЕ!
    Сайт не распространяет и не хранит электронные версии произведений, а занимается лишь лишь предоставлением доступа к создаваемому пользователями каталогу ссылок на торрент-файлы, которые содержат только списки хеш-сумм, убедительная просьба с жалобами обращаться напрямую к пользователю. Файлы для обмена на трекере предоставлены пользователями сайта, и администрация не несёт ответственности за их содержание. Просьба не заливать файлы, защищенные авторскими правами, а также файлы нелегального содержания!


    _________________
    [Профиль] [ЛС]

    -746

    Создавать темы 03-Июн-2016 21:41 (спустя 6 месяцев 25 дней)

           

    Топік був перенесений з форуму Закордонне кіно українською у форум Фільми 2011-2015 українською

    rechyn

    _________________
    Как бы ты высоко не летал, не забывай, с кем ты ползал..
     
    Показать сообщения:    
    Ответить на тему

    Текущее время: Сегодня, в 08:51

    Часовой пояс: GMT + 2



    Вы не можете начинать темы
    Вы не можете отвечать на сообщения
    Вы не можете редактировать свои сообщения
    Вы не можете удалять свои сообщения
    Вы не можете голосовать в опросах
    Вы не можете прикреплять файлы к сообщениям
    Вы не можете скачивать файлы