BitTorrentTracker PerecTracker.org
BitTorrentTracker PerecTracker.org
    
Регистрация  ·  Вход
 
 · 
Забыли пароль?

  • Ця незручна мить / Un moment d'égarement (Жан-Франсуа Ріше) [2015 р., мелодрама, комедія, WEB-DLRip] MVO (MEGOGO.NET) Ukr

    Ответить на тему
     
    Автор Сообщение

    older

    Создавать темы 08-Ноя-2015 08:52

           

    [Цитировать]

    Ця незручна мить / Un moment d'égarement

    Рік випуску: 2015
    Країна: Франція , Бельгія
    Кіностудія / кінокомпанія: La Petite Reine
    Жанр: мелодрама, комедія
    Тривалість: 01:45:29
    Субтитри: відсутні
    Переклад: багатоголосий, закадровий - MEGOGO.NET
    Аудіодоріжка: українська-Режисер: Жан-Франсуа Ріше
    Продюсер: Себастьєн Справи, Тома Лангманн, Деніел Справах
    Сценарій: Ліза Азуелос, Жан-Франсуа Ріше, Клод Беррі-Світова прем'єра: 11 червня 2015
    Прем'єра в Україні: 16 липня 2015, «TFD Film Ukraine»
    Обмеження за віком: 16+- -Актори: Венсан Кассель, Франсуа Клюзе, Лола Ле Ланн, Еліс Ісаас-Сюжет: Двоє нерозлучних друзів проводять відпустку на Рив’єрі зі своїми доньками. На сонячних пляжах сорокадворічному батькові сімейства не встояти перед чарами спокусливої сімнадцятирічної красуні. Він по вуха закохується. І все б нічого, та тільки чарівна дівчина є донькою його найкращого друга — суворого батька, котрий погрожує пристрелити кожного, хто підійде ближче, ніж на крок до його улюбленої крихітки.-Формат: AVI
    Якість: WEB-DLRip
    Відео кодек: XviD
    Відео: 720x384 (1,85:1), 1773 kbps, 25,000 fps, 0.257 bit/pixel
    Аудіо: AC3, 48 kHz, 2 ch, 192 kbps-Джерело:

    MediaInfo

    Общее
    Полное имя                               : \Un moment d'egarement (2015) WEBDLRip [Hurtom].avi
    Формат                                   : AVI
    Формат/Информация                        : Audio Video Interleave
    Размер файла                             : 1,46 Гбайт
    Продолжительность                        : 1 ч. 45 м.
    Общий поток                              : 1975 Кбит/сек
    Программа кодирования                    : VirtualDubMod 1.5.10.2 (build 2540/release)
    Библиотека кодирования                   : VirtualDubMod build 2540/release
    Видео
    Идентификатор                            : 0
    Формат                                   : MPEG-4 Visual
    Профиль формата                          : Advanced Simple@L5
    Параметр BVOP формата                    : 1
    Параметр QPel формата                    : Нет
    Параметр GMC формата                     : Без точки перехода
    Параметр матрицы формата                 : Default (H.263)
    Режим смешивания                         : Сжатый битовый поток
    Идентификатор кодека                     : XVID
    Идентификатор кодека/Подсказка           : XviD
    Продолжительность                        : 1 ч. 45 м.
    Битрейт                                  : 1773 Кбит/сек
    Ширина                                   : 720 пикселей
    Высота                                   : 384 пикселя
    Соотношение сторон                       : 1,85:1
    Частота кадров                           : 25,000 кадров/сек
    Цветовое пространство                    : YUV
    Субдискретизация насыщенности            : 4:2:0
    Битовая глубина                          : 8 бит
    Тип развёртки                            : Прогрессивная
    Метод сжатия                             : С потерями
    Бит/(Пиксели*Кадры)                      : 0.257
    Размер потока                            : 1,31 Гбайт (90%)
    Библиотека кодирования                   : XviD 1.2.1 (UTC 2008-12-04)
    Аудио
    Идентификатор                            : 1
    Формат                                   : AC-3
    Формат/Информация                        : Audio Coding 3
    Расширение режима                        : CM (complete main)
    Параметр Endianness формата              : Big
    Идентификатор кодека                     : 2000
    Продолжительность                        : 1 ч. 45 м.
    Вид битрейта                             : Постоянный
    Битрейт                                  : 192 Кбит/сек
    Каналы                                   : 2 канала
    Расположение каналов                     : Front: L R
    Частота                                  : 48,0 КГц
    Битовая глубина                          : 16 бит
    Метод сжатия                             : С потерями
    Размер потока                            : 145 Мбайт (10%)
    Выравнивание                             : Разделение по промежуткам
    Продолжительность промежутка             : 40  мс. (1,00 видеокадр)
    Время предзагрузки промежутка            : 500  мс.

    Скріншоти

    Скачать .torrent

    Скачать торрент-файл бесплатно и на максимальной скорости!

    Как скачивать? · Что такое торрент? · Рейтинг и ограничения

    !ВНИМАНИЕ!
    Сайт не распространяет и не хранит электронные версии произведений, а занимается лишь лишь предоставлением доступа к создаваемому пользователями каталогу ссылок на торрент-файлы, которые содержат только списки хеш-сумм, убедительная просьба с жалобами обращаться напрямую к пользователю. Файлы для обмена на трекере предоставлены пользователями сайта, и администрация не несёт ответственности за их содержание. Просьба не заливать файлы, защищенные авторскими правами, а также файлы нелегального содержания!


    _________________
    [Профиль] [ЛС]
    Показать сообщения:    
    Ответить на тему

    Текущее время: Сегодня, в 10:33

    Часовой пояс: GMT + 2



    Вы не можете начинать темы
    Вы не можете отвечать на сообщения
    Вы не можете редактировать свои сообщения
    Вы не можете удалять свои сообщения
    Вы не можете голосовать в опросах
    Вы не можете прикреплять файлы к сообщениям
    Вы не можете скачивать файлы